<?xml version="1.0" encoding="UTF-8" standalone="no"?>
<svg xmlns="http://www.w3.org/2000/svg" xmlns:xlink="http://www.w3.org/1999/xlink" version="1.1">
  <metadata>
Created by FontForge 20161003 at Sun Dec 16 22:20:32 2018
 By www-data
Copyright (c) 2019 by www.fontiran.com (Moslem Ebrahimi). All rights reserved.
</metadata>
  <defs>
    <font id="IRANYekanWeb">
      <glyph glyph-name="uni06440627.isol" unicode="ﻟﺎ" d="M143 189h539q92 0 143.5 13.5t79.5 41.5q20 19 29.5 53.5t9.5 91.5v1039h188v-1039q0 -199 -113.5 -294t-336.5 -95h-539v189zM268 366l-60 1021l187 21l61 -1042h-188z"></glyph>
      <glyph glyph-name="uni06440627.fina" unicode="ﻠﺎ" d="M268 366l-60 1021l187 21l61 -1042h-188zM1365 189v-189h-51q-91 0 -160.5 26t-111.5 78q-104 -104 -308 -104h-590v189h590q72 0 114 14.5t63.5 36t28 48t6.5 50.5v1090h188v-1083q0 -37 11 -63t28.5 -43.5t39 -27.5t41.5 -15t36 -6t24 -1h51z"></glyph>
      <glyph glyph-name="uni06440623.isol" unicode="ﻟﺄ" d="M164 188h539q92 0 143.5 13.5t79.5 41.5q20 19 29.5 53.5t9.5 91.5v1039h188v-1039q0 -199 -113.5 -294t-336.5 -95h-539v189zM289 365l-60 1021l187 21l61 -1042h-188zM0 1463l9 127l124 37q-54 43 -74 104q-9 27 -9 54q0 12 3.5 38.5t23 61t51 60t69.5 36.5 q27 9 54 9.5t52.5 -3t48.5 -11t43 -14.5l-25 -101q-17 4 -36 8t-38 6.5t-36 2t-28 -4.5q-17 -6 -31.5 -16.5t-24 -24t-12.5 -30.5q-1 -6 -1 -12q0 -12 4 -25q6 -20 22.5 -36.5t44.5 -25.5t67 -9t92 14l85 25l34 -108z"></glyph>
      <glyph glyph-name="uni06440623.fina" unicode="ﻠﺄ" d="M268 366l-60 1021l187 21l61 -1042h-188zM1365 189v-189h-51q-91 0 -160.5 26t-111.5 78q-104 -104 -308 -104h-590v189h590q72 0 114 14.5t63.5 36t28 48t6.5 50.5v1090h188v-1083q0 -37 11 -63t28.5 -43.5t39 -27.5t41.5 -15t36 -6t24 -1h51zM32 1487l9 127l124 37 q-54 43 -74 104q-9 27 -9 54q0 12 3.5 38.5t23 61t51 60t69.5 36.5q27 9 54 9.5t52.5 -3t48.5 -11t43 -14.5l-25 -101q-17 4 -36 8t-38 6.5t-36 2t-28 -4.5q-17 -6 -31.5 -16.5t-24 -24t-12.5 -30.5q-1 -6 -1 -12q0 -12 4 -25q6 -20 22.5 -36.5t44.5 -25.5t67 -9t92 14 l85 25l34 -108z"></glyph>
      <glyph glyph-name="uni06440625.isol" unicode="ﻟﺈ" d="M143 188h539q92 0 143.5 13.5t79.5 41.5q20 19 29.5 53.5t9.5 91.5v1039h188v-1039q0 -199 -113.5 -294t-336.5 -95h-539v189zM268 365l-60 1021l187 21l61 -1042h-188zM267 -671l9 127l124 37q-54 43 -74 104q-9 27 -9 54q0 12 3.5 38.5t23 61t51 60t69.5 36.5 q27 9 54 9.5t52.5 -3t48.5 -11t43 -14.5l-25 -101q-17 4 -36 8t-38 6.5t-36 2t-28 -4.5q-17 -6 -31.5 -16.5t-24 -24t-12.5 -30.5q-1 -6 -1 -12q0 -12 4 -25q6 -20 22.5 -36.5t44.5 -25.5t67 -9t92 14l85 25l34 -108z"></glyph>
      <glyph glyph-name="uni06440625.fina" unicode="ﻠﺈ" d="M268 366l-60 1021l187 21l61 -1042h-188zM1365 189v-189h-51q-91 0 -160.5 26t-111.5 78q-104 -104 -308 -104h-590v189h590q72 0 114 14.5t63.5 36t28 48t6.5 50.5v1090h188v-1083q0 -37 11 -63t28.5 -43.5t39 -27.5t41.5 -15t36 -6t24 -1h51zM262 -668l9 127l124 37 q-54 43 -74 104q-9 27 -9 54q0 12 3.5 38.5t23 61t51 60t69.5 36.5q27 9 54 9.5t52.5 -3t48.5 -11t43 -14.5l-25 -101q-17 4 -36 8t-38 6.5t-36 2t-28 -4.5q-17 -6 -31.5 -16.5t-24 -24t-12.5 -30.5q-1 -6 -1 -12q0 -12 4 -25q6 -20 22.5 -36.5t44.5 -25.5t67 -9t92 14 l85 25l34 -108z"></glyph>
      <glyph glyph-name="uni06440622.isol" unicode="ﻟﺂ" d="M222 188h539q92 0 143.5 13.5t79.5 41.5q20 19 29.5 53.5t9.5 91.5v1039h188v-1039q0 -199 -113.5 -294t-336.5 -95h-539v189zM347 365l-60 1021l187 21l61 -1042h-188zM900 1560h-483q-63 0 -106 -5t-72.5 -20t-48 -43t-32.5 -74l-158 47q46 161 167 221q51 26 113 33.5 t137 7.5h483v-167z"></glyph>
      <glyph glyph-name="uni06440622.fina" unicode="ﻠﺂ" d="M268 366l-60 1021l187 21l61 -1042h-188zM1365 189v-189h-51q-91 0 -160.5 26t-111.5 78q-104 -104 -308 -104h-590v189h590q72 0 114 14.5t63.5 36t28 48t6.5 50.5v1090h188v-1083q0 -37 11 -63t28.5 -43.5t39 -27.5t41.5 -15t36 -6t24 -1h51zM900 1567h-483 q-63 0 -106 -5t-72.5 -20t-48 -43t-32.5 -74l-158 47q46 161 167 221q51 26 113 33.5t137 7.5h483v-167z"></glyph>
      <glyph glyph-name="uni06440671.isol" unicode="ﻟﭑ" d="M143 188h539q92 0 143.5 13.5t79.5 41.5q20 19 29.5 53.5t9.5 91.5v1039h188v-1039q0 -199 -113.5 -294t-336.5 -95h-539v189zM268 365l-60 1021l187 21l61 -1042h-188zM1 1530l19 85h129l47 73l83 122q38 46 84 77t103 31q33 0 64.5 -12t56.5 -37.5t40.5 -64.5t15.5 -92 q0 -51 -17 -85.5t-43 -56t-58.5 -31t-63.5 -9.5h-460zM461 1615q42 0 69 23t27 74q0 58 -23.5 89.5t-67.5 31.5q-32 0 -61 -20t-56 -51.5t-51.5 -69.5t-45.5 -74q-1 -1 -1 -3h210z"></glyph>
      <glyph glyph-name="uni06440671.fina" unicode="ﻠﭑ" d="M268 366l-60 1021l187 21l61 -1042h-188zM1365 189v-189h-51q-91 0 -160.5 26t-111.5 78q-104 -104 -308 -104h-590v189h590q72 0 114 14.5t63.5 36t28 48t6.5 50.5v1090h188v-1083q0 -37 11 -63t28.5 -43.5t39 -27.5t41.5 -15t36 -6t24 -1h51zM-2 1544l19 85h129l47 73 l83 122q38 46 84 77t103 31q33 0 64.5 -12t56.5 -37.5t40.5 -64.5t15.5 -92q0 -51 -17 -85.5t-43 -56t-58.5 -31t-63.5 -9.5h-460zM458 1629q42 0 69 23t27 74q0 58 -23.5 89.5t-67.5 31.5q-32 0 -61 -20t-56 -51.5t-51.5 -69.5t-45.5 -74q-1 -1 -1 -3h210z"></glyph>
      <glyph glyph-name="allah" unicode="ﻟﻠﻪ" d="M1311 1307q-87 0 -136 48t-49 134v91l91 15v-106q0 -48 22 -70t72 -22q7 0 20.5 2.5t26.5 12t23 28t10 49.5v90l92 20v-110q0 -48 22 -70.5t73 -22.5q7 0 20 3.5t26 13t22 28t9 48.5q0 15 -3.5 36t-8.5 42t-9.5 39t-7.5 27l85 29q1 -5 7 -23.5t12 -44t11 -53.5t5 -52 q0 -47 -15 -81.5t-39.5 -57t-55 -33.5t-60.5 -11q-92 0 -140 53q-25 -27 -58 -39.5t-67 -12.5zM1100 0q-103 0 -174 26.5t-118 74.5t-72.5 116t-37.5 151l-62 442l-120 -25q-105 -27 -143 -94q-29 -49 -31 -118q-1 -13 -1 -26q0 -57 11.5 -127t33 -149t42.5 -148l28 -92 l-182 -51q-18 62 -38.5 130t-38.5 138.5t-30.5 141.5t-13.5 140v10q0 64 12 126t45 119q81 140 262 182q20 5 55.5 13t70.5 15.5t61.5 12.5t28.5 5l111 -72l81 -525q12 -75 34 -120t51.5 -69t64 -31t70.5 -7h2q79 0 125.5 19.5t70.5 49t31 64.5t7 67l-2 705l190 44v-749 q0 -3 -0.5 -5.5t-0.5 -4.5h1q0 -54 20.5 -90.5t52.5 -58.5t71.5 -31.5t77.5 -9.5h10q61 0 104 10.5t69 34t38 61.5t12 94l-48 831l188 93l48 -924q0 -34 -3 -70.5t-13 -73.5t-29 -72.5t-51 -66.5q-29 -27 -56.5 -46.5t-63 -33t-82.5 -20t-113 -6.5h-10q-38 0 -81 6.5 t-83.5 19.5t-76.5 32.5t-61 44.5l-15 15q-29 -30 -59.5 -52t-68.5 -36.5t-86.5 -22t-112.5 -7.5h-2zM1389 1975l93 22v-278l-93 -23v279z"></glyph>
      <glyph glyph-name="riyal" unicode="رﻳﺎل" d="M733 -553q-134 0 -243.5 58.5t-177.5 164.5q-27 43 -52 113t-29 169q-1 15 -1 31q0 87 24.5 205t101.5 278l170 -81q-47 -96 -73.5 -184t-32.5 -166q-2 -27 -2 -53q0 -48 10 -103t43 -108q42 -64 110.5 -99.5t151.5 -35.5h72q114 0 186.5 24t113 68.5t55.5 106.5t15 139 v1453h186v-1453q0 -525 -556 -527h-72zM2423 -555v189h138q103 0 178.5 24.5t125 75.5t73 130t23.5 188v624h189v-624q0 -143 -37.5 -255.5t-111.5 -190.5t-184.5 -119.5t-255.5 -41.5h-138zM2305 -394l-162 -162l-156 162l158 160zM1922 -396l-162 -162l-156 162l158 160z M2023 0q-105 1 -173.5 14.5t-116 39t-76 64t-44.5 90t-21 115.5t-5 142v962h189v-962q0 -87 5.5 -141t29 -83.5t71 -40t141.5 -11.5v-189zM2522 814q2 -6 8 -32t13.5 -64.5t16.5 -85t16 -94t12 -91.5t5 -77q0 -96 -31.5 -165.5t-82 -115t-113.5 -67.5t-127 -22h-255v189h255 q15 0 42.5 4.5t55 22.5t48 54t20.5 100q0 22 -3.5 55.5t-9 72t-12.5 79t-14 76.5t-13 64t-10 42z"></glyph>
      <glyph glyph-name="uni0621" unicode="ء" d="M99 -44l-6 183l232 69q-50 35 -88 81t-55 101v-1q-15 45 -15 90q0 23 7.5 69t40.5 107q23 39 55.5 70.5t71.5 53.5t82 33.5t88 11.5q58 0 116 -13.5t115 -27.5q-10 -44 -19.5 -80.5t-19.5 -80.5q-63 13 -109.5 18.5t-84.5 5.5q-45 0 -82.5 -17.5t-62 -46.5t-33.5 -65 q-5 -17 -5 -34q0 -21 7 -42q12 -38 36 -64.5t55 -43t66 -24t70 -7.5q36 0 78.5 8t86.5 20t86 26t76 26l7 -193z"></glyph>
      <glyph glyph-name="uni0627" unicode="ا" d="M389 1h-189v1426h189v-1426z"></glyph>
      <glyph glyph-name="uni0627.fina" unicode="ا" d="M636 0q-105 1 -173.5 14.5t-116 39t-76 64t-44.5 90t-21 115.5t-5 142v962h189v-962q0 -87 5.5 -141t29 -83.5t71 -40t141.5 -11.5v-189z"></glyph>
      <glyph glyph-name="uni062D" unicode="ح" d="M1342 603q-2 -1 -31.5 -12.5t-99 -38t-186 -70t-293.5 -109.5q-108 -41 -185 -74.5t-128 -64t-79.5 -60t-41.5 -60t-14 -65.5v-10q0 -31 5 -66q13 -105 54 -171t104.5 -102.5t148.5 -50t186 -13.5h459v-189h-459q-46 0 -97.5 2.5t-105 11t-107.5 24.5t-105 43 q-226 122 -265 420q-6 44 -6 84q0 69 22.5 141.5t96.5 143.5q70 67 182.5 120.5t269.5 111.5l419 150q-97 39 -194 74t-178.5 61.5t-139.5 43t-77 19.5q-17 0 -35.5 -3t-36.5 -18t-35 -46.5t-32 -88.5l-183 48q77 296 324 296q7 0 16.5 -0.5t29 -5t50.5 -14t81 -26.5 t121 -43.5t170 -65.5l368 -150z"></glyph>
      <glyph glyph-name="uni062D.init" unicode="ح" d="M1328 400q-6 -4 -52 -35t-122.5 -75.5t-178.5 -95.5t-219.5 -94t-245.5 -71.5t-256 -28.5h-274v189h274q112 0 226.5 26.5t220.5 66t199 86t163 87.5q-97 39 -193.5 76t-176.5 65.5t-137.5 46.5t-76.5 21q-17 0 -35.5 -3t-36.5 -18t-35 -46.5t-32 -88.5l-183 48 q77 296 324 296q6 0 16 -0.5t29 -5t51 -14t81.5 -26.5t120.5 -43.5t170 -65.5l354 -131z"></glyph>
      <glyph glyph-name="uni062D.medi" unicode="ح" d="M1335 400q-6 -4 -50 -34t-117 -73q11 -37 35.5 -57.5t51.5 -31t51 -13t34 -2.5h210v-189h-210q-73 0 -136.5 21.5t-114.5 63.5q-58 49 -88 118q-77 -38 -165 -74.5t-182.5 -65t-194 -46t-198.5 -17.5h-281v189h281q112 0 226.5 26.5t220.5 66t199 86t163 87.5 q-97 39 -193.5 76t-176.5 65.5t-137.5 46.5t-76.5 21q-17 0 -35.5 -3t-36.5 -18t-35 -46.5t-32 -88.5l-183 48q77 296 324 296q7 0 16.5 -0.5t29 -5t50.5 -14t81 -26.5t121 -43.5t170 -65.5l354 -131z"></glyph>
      <glyph glyph-name="uni062D.fina" unicode="ح" d="M1342 397q-3 -1 -40.5 -16t-128.5 -49q12 -37 32 -64t43 -44.5t48 -26t47 -8.5h253v-189h-253q-74 0 -132 18.5t-101 52.5t-72 83t-44 110l-262 -97q-108 -40 -185 -74t-128 -64.5t-79.5 -60t-41.5 -60t-14 -65.5v-10q0 -31 5 -66q13 -105 54 -171t104.5 -102.5 t148.5 -50t186 -13.5h459v-189h-459q-46 0 -97.5 2.5t-105 11t-107.5 24.5t-105 43q-226 122 -265 420q-6 44 -6 84q0 69 22.5 141.5t96.5 143.5q70 67 182.5 120.5t269.5 111.5l427 152q-97 39 -195.5 73.5t-181 61t-142 42.5t-78.5 19q-17 0 -35.5 -3t-36.5 -18t-35 -46.5 t-32 -88.5l-183 48q77 296 324 296q7 0 16.5 -0.5t29 -5t50.5 -14t81 -26.5t121 -43.5t170 -65.5l368 -150z"></glyph>
      <glyph glyph-name="uni062F" unicode="د" d="M543 -15q-51 0 -103 4.5t-101.5 14t-95 25t-82.5 37.5l-83 47l94 165l83 -47q35 -20 86 -32.5t108 -17.5q49 -5 98 -5q9 0 42 0.5t82 7.5q58 9 95.5 25.5t47.5 37.5q4 10 4 22q0 17 -10 47.5t-42 78.5l-362 547l160 104q13 -20 27 -41.5t33 -50t44 -67t61 -92.5l84 -126 l112 -168q25 -38 45 -79.5t30 -83.5q9 -38 9 -76q0 -4 -1 -27.5t-20 -64.5q-63 -141 -290 -174q-35 -5 -74 -8t-81 -3z"></glyph>
      <glyph glyph-name="uni0631" unicode="ر" d="M0 -555v189h138q103 0 178.5 24.5t125 75.5t73 130t23.5 188v624h189v-624q0 -143 -37.5 -255.5t-111.5 -190.5t-184.5 -119.5t-255.5 -41.5h-138z"></glyph>
      <glyph glyph-name="uni0631.fina" unicode="ر" d="M947 0h-43q-96 0 -177 38q0 -140 -39 -250t-114 -186.5t-184.5 -116.5t-251.5 -40h-138v189h138q103 0 178.5 24.5t125 75.5t73 130t23.5 188v624h189v-331q0 -56 23.5 -87.5t54.5 -46.5t59.5 -18.5t39.5 -3.5h43v-189z"></glyph>
      <glyph glyph-name="uni0633" unicode="س" d="M2285 0q-99 0 -173.5 29t-124.5 84q-27 -32 -60.5 -53.5t-69 -35t-72 -19t-70.5 -5.5q-125 0 -216 56v-84q0 -262 -140 -393t-419 -131h-235q-155 0 -281 67t-204 191q-54 85 -77 189q-19 81 -19 170q0 26 4.5 99t41.5 204t103 270l170 -83q-56 -116 -88.5 -223 t-40.5 -202q-3 -32 -3 -62q0 -61 13.5 -129t54.5 -132q52 -81 136 -125.5t190 -44.5h235q115 0 187.5 24t113 68t55 105.5t14.5 137.5v704h189v-195q0 -96 18.5 -153.5t49 -88.5t69 -41t79.5 -10q25 0 57 9t60 30.5t47.5 57.5t19.5 90v301h188v-311q2 -91 48.5 -134 t148.5 -43q17 1 44.5 7.5t53 26t44 56t18.5 97.5q0 22 -3.5 55t-8.5 70.5t-12 77t-13.5 74.5t-12.5 62.5t-10 41.5l180 55q2 -5 7.5 -30.5t13.5 -63t16.5 -83.5t15.5 -92.5t11.5 -90t4.5 -76.5q0 -95 -30.5 -164.5t-80 -116t-112 -70t-125.5 -24.5z"></glyph>
      <glyph glyph-name="uni0633.init" unicode="س" d="M760 2q-94 0 -167 27.5t-123 79.5q-52 -56 -121 -82.5t-139 -26.5h-230v189h230q15 0 43 4.5t55 23t47.5 55.5t20.5 101v303h189v-299q0 -97 45.5 -142t149.5 -45q15 0 42.5 5.5t55 24.5t48 56t20.5 101v299h188v-299q0 -97 47 -143t151 -46q16 0 43 6.5t53.5 26.5 t45.5 57t19 99q0 22 -3.5 55t-9 71t-12.5 77.5t-14 74t-13 62t-10 40.5l179 57q2 -6 8 -31.5t14 -63t16.5 -83.5t16 -92.5t12.5 -90t5 -76.5q0 -95 -31 -165.5t-80.5 -117t-112.5 -70t-126 -24.5q-96 0 -169.5 28.5t-124.5 82.5q-52 -55 -120.5 -82t-137.5 -27z"></glyph>
      <glyph glyph-name="uni0633.medi" unicode="س" d="M1737 0q-96 0 -170 27.5t-124 82.5h-1l-15 -16q-49 -47 -111 -70.5t-133 -23.5q-187 0 -290 108q-50 -53 -115 -79.5t-132 -28.5h-13q-177 3 -276 104q-6 -8 -14 -14q-101 -90 -285 -90h-78v189h78q64 0 103.5 12t61.5 35.5t29.5 57t7.5 76.5v305h189v-300q0 -97 47 -141 t147 -45q18 1 44.5 7t51 25t42.5 54.5t18 94.5v305h188v-300q0 -97 46.5 -141.5t149.5 -44.5q29 0 58 9t52 30t38 54.5t17 82.5v310h189v-310q2 -92 51 -134t149 -42h61v-189h-61z"></glyph>
      <glyph glyph-name="uni0633.fina" unicode="س" d="M2861 0q-99 0 -174.5 29t-125.5 84l-24 -23q-50 -42 -115 -66t-133 -24q-98 0 -172 29t-124 84l-24 -23q-50 -42 -115 -66t-133 -24q-125 0 -216 56v-84q0 -262 -140 -393t-419 -131h-235q-155 0 -281 67t-204 191q-54 85 -77 189q-18 81 -18 170q0 26 4 99t41 204 t103 270l170 -83q-56 -116 -88.5 -223t-40.5 -202q-2 -32 -2 -62q0 -61 13 -129t54 -132q52 -81 136 -125.5t190 -44.5h235q115 0 187.5 24t113 68t55 105.5t14.5 137.5v703h189v-194q0 -96 18.5 -153.5t49 -88.5t69 -41t79.5 -10q25 0 57 9t60 30.5t47.5 57.5t19.5 90v300 h188v-310q2 -91 48.5 -134t149.5 -43q25 0 56.5 9t59.5 30.5t47 57.5t19 90v300h188v-310q2 -91 49.5 -133.5t150.5 -42.5h79v-189h-79z"></glyph>
      <glyph glyph-name="uni0635" unicode="ص" d="M720 -550q-156 0 -282.5 67.5t-204.5 192.5q-54 85 -77 189q-19 80 -19 168q0 26 4.5 98.5t41 202t102.5 267.5l171 -81q-112 -232 -128 -423q-3 -31 -3 -61q0 -152 69 -261q50 -81 135 -125.5t191 -44.5h235q115 0 186.5 24.5t112 68.5t55 106.5t14.5 138.5v699h188 v-334q0 -54 23 -85t53 -46q12 19 23.5 39t25.5 40q38 63 80.5 130t89 130t98 119.5t109.5 98.5t122.5 66.5t137.5 24.5t143.5 -27t126 -83.5t89.5 -142.5t34 -204q0 -111 -36.5 -187.5t-94.5 -124.5t-129.5 -69t-141.5 -21h-573q-48 0 -94 10t-86 29v-62q0 -527 -556 -527 h-235zM2264 189q9 0 24 1t33.5 4.5t38.5 10.5t39 20q78 52 78 177q0 127 -53.5 197.5t-150.5 70.5q-46 0 -90.5 -21t-86.5 -56.5t-82 -83t-78 -101t-73 -110t-68 -109.5h469z"></glyph>
      <glyph glyph-name="uni0635.init" unicode="ص" d="M-20 0v189h173q70 0 112 14t64 35.5t29 47.5t7 51v338h188v-330q0 -56 23.5 -87t53.5 -46q12 19 23.5 38.5t23.5 39.5q39 64 81.5 130.5t89.5 130t98.5 119.5t109.5 97.5t123 66t138 24.5t143.5 -26.5t125.5 -82t88.5 -141.5t33.5 -205q0 -111 -36.5 -188t-94.5 -125 t-130 -69t-142 -21h-572q-72 0 -136 21.5t-113 61.5q-12 9 -23 20q-52 -51 -126.5 -76t-174.5 -27h-180zM1305 189q49 0 89 13.5t68.5 40.5t44 67t15.5 93q0 128 -55 197.5t-150 69.5q-70 0 -135.5 -45t-126 -115t-115.5 -155t-104 -166h469z"></glyph>
      <glyph glyph-name="uni0635.medi" unicode="ص" d="M-21 0v189h173q70 0 112 14t64 35.5t29 47.5t7 51v339h188v-331q0 -56 23.5 -87t53.5 -46q12 19 23.5 38.5t23.5 39.5q39 64 81.5 130.5t89.5 130t98.5 119.5t109.5 97.5t123 66t138 24.5t143.5 -26.5t125.5 -82t88.5 -141.5t33.5 -205q0 -66 -13.5 -119t-36.5 -95h206 v-189h-1131q-72 0 -136 21.5t-113 61.5q-12 9 -23 20q-52 -51 -126.5 -76t-174.5 -27h-180zM1315 189q23 1 58.5 8t68.5 28q38 26 58.5 69.5t20.5 108.5q0 128 -55 197.5t-150 69.5q-47 0 -91 -20.5t-86.5 -55.5t-82.5 -82t-77.5 -100t-73 -109.5t-68.5 -109.5l-2 -4h480z "></glyph>
      <glyph glyph-name="uni0635.fina" unicode="ص" d="M719 -550q-156 0 -282.5 67.5t-204.5 192.5q-54 85 -77 189q-18 80 -18 168q0 26 4 98.5t40.5 202t102.5 267.5l171 -81q-112 -232 -128 -423q-2 -31 -2 -61q0 -152 68 -261q50 -81 135 -125.5t191 -44.5h235q115 0 186.5 24.5t112 68.5t55 106.5t14.5 138.5v699h188 v-334q0 -54 23 -85t53 -46q12 19 23.5 39t25.5 40q38 63 80.5 130t89 130t98 119.5t109.5 98.5t122.5 66.5t137.5 24.5t143.5 -27t126 -83.5t89.5 -142.5t34 -204q0 -66 -13.5 -118.5t-36.5 -94.5h208v-189h-1133q-48 0 -94 10t-86 29v-62q0 -527 -556 -527h-235zM2273 189 q96 5 149.5 58t53.5 155q0 127 -53.5 197.5t-150.5 70.5q-46 0 -90.5 -21t-86.5 -56.5t-82 -83t-78 -101t-73 -110t-68 -109.5h479z"></glyph>
      <glyph glyph-name="uni0637" unicode="ط" d="M87 0v189h224q25 38 49 80t50 81v1077h188v-807q43 51 89.5 95.5t98 76.5t108 50.5t118.5 18.5q73 0 144 -27t126.5 -83t89.5 -142t34 -204q0 -75 -17 -134t-46.5 -104t-69 -76.5t-84.5 -52t-93.5 -29.5t-94.5 -9h-914zM1001 189q9 0 24.5 1t34.5 5t39.5 11t39.5 19 q40 26 59 70t19 110q0 127 -54 197.5t-151 70.5q-46 0 -90 -20.5t-86.5 -56t-82.5 -83t-77.5 -101t-72.5 -110t-67 -109.5q-2 -2 -2 -4h467z"></glyph>
      <glyph glyph-name="uni0637.init" unicode="ط" d="M-20 0v189h224q25 38 49 80t50 81v1077h188v-807q43 51 89.5 95.5t98 76.5t108 50.5t118.5 18.5q73 0 144 -27t126.5 -83t89.5 -142t34 -204q0 -75 -17 -134t-46.5 -104t-69 -76.5t-84.5 -52t-93.5 -29.5t-94.5 -9h-914zM894 189q9 0 24.5 1t34.5 5t39.5 11t39.5 19 q40 26 59 70t19 110q0 127 -54 197.5t-151 70.5q-46 0 -90 -20.5t-86.5 -56t-82.5 -83t-77.5 -101t-72.5 -110t-67 -109.5q-2 -2 -2 -4h467z"></glyph>
      <glyph glyph-name="uni0637.medi" unicode="ط" d="M1481 0h-1501v189h224q25 38 49 80t50 81v1077h188v-807q43 51 89.5 95.5t98 76.5t108 50.5t118.5 18.5q73 0 144 -27t126.5 -83t89.5 -142t34 -204q0 -67 -13.5 -120t-37.5 -96h233v-189zM894 189q46 0 85.5 13t68.5 39.5t45.5 67t16.5 96.5q0 127 -54 197.5t-151 70.5 q-46 0 -90 -20.5t-86.5 -56t-82.5 -83t-77.5 -101t-72.5 -110t-67 -109.5q-2 -2 -2 -4h467z"></glyph>
      <glyph glyph-name="uni0637.fina" unicode="ط" d="M1614 0h-1501v189h224q25 38 49 80t50 81v1077h188v-807q43 51 89.5 95t98 76t108 50.5t118.5 18.5q73 0 144 -27t126.5 -82.5t89.5 -141.5t34 -204q0 -67 -13.5 -120t-37.5 -96h233v-189zM1027 189q46 0 85.5 13t68.5 39.5t45.5 67t16.5 96.5q0 127 -54 197t-151 70 q-46 0 -90 -20.5t-86.5 -56t-82.5 -82.5t-77.5 -100.5t-72.5 -110t-67 -109.5q-2 -2 -2 -4h467z"></glyph>
      <glyph glyph-name="uni0639" unicode="ع" d="M1193 -552h-465q-120 0 -235.5 33t-206.5 101.5t-146.5 173.5t-55.5 249q0 121 48 227t138 182q57 48 125 80.5t140 46.5q-39 39 -63 80.5t-37 79.5t-17.5 71.5t-4.5 57.5q0 82 33 154t88.5 126t129 85t154.5 31q55 0 104 -14t94.5 -36t89 -49t89.5 -53l-94 -163 q-35 20 -72 42.5t-73 41t-71 30.5t-67 12q-39 0 -78 -14.5t-69.5 -41.5t-50 -65t-19.5 -86q0 -15 3 -35t12.5 -43.5t26.5 -48t46 -47.5q66 -52 171 -79t245 -27h127v-189h-605q-36 0 -76 -9.5t-79.5 -29t-75.5 -48.5t-63 -68.5t-43.5 -89.5t-16.5 -111q0 -87 28.5 -148.5 t72.5 -102.5t98 -64.5t104.5 -35t91.5 -14.5t60 -3h465v-189z"></glyph>
      <glyph glyph-name="uni0639.init" unicode="ع" d="M-21 0v189h342q-37 38 -59.5 77t-34.5 75t-16 67.5t-4 55.5q0 82 33 154.5t88.5 125.5t129 84t154.5 31q47 0 90 -10.5t87 -30t92.5 -48t107.5 -63.5l-94 -162q-35 21 -71.5 43.5t-73 40.5t-72 29.5t-66.5 11.5q-39 0 -77.5 -14t-70 -40.5t-51 -65t-19.5 -86.5 q0 -54 21.5 -95.5t58.5 -72t86.5 -51t106 -33t116 -18t117.5 -5.5h126v-189h-1047z"></glyph>
      <glyph glyph-name="uni0639.medi" unicode="ع" d="M906 0q-17 0 -39 4.5t-52 17.5t-69 37t-91 63q-116 -63 -271 -92.5t-346 -29.5h-58v189h58q144 0 258 16.5t193 47.5q-52 44 -103.5 91t-94.5 88.5t-74.5 72t-42.5 42.5v40q0 19 2 41.5t8 46.5t18 48.5t32 47.5q76 85 242 85h331q83 0 150 -40.5t98 -111.5 q23 -46 22.5 -90.5t-17 -87t-45 -82t-62.5 -76t-69.5 -69.5t-65.5 -62q22 -15 38 -24.5t26.5 -14.5t16 -6.5t7.5 -2.5h366v-189h-366zM365 623q20 -19 56 -52.5t78.5 -72.5t86 -78t78.5 -68q54 43 103.5 91t99.5 111q11 14 19 33q3 7 3 15q0 12 -6 24q-8 15 -26 28t-50 13 h-331q-29 0 -47.5 -2.5t-30 -6.5t-17 -7.5t-7.5 -6.5q-3 -2 -5 -7.5t-4 -13.5z"></glyph>
      <glyph glyph-name="uni0639.fina" unicode="ع" d="M1182 -761h-464q-43 0 -94.5 4t-106.5 15t-110.5 31t-107.5 53q-111 68 -167 175.5t-56 248.5q0 95 45 181.5t137 170.5q62 55 135.5 104t151.5 96q-50 49 -94.5 95t-79 82.5t-55 59t-22.5 25.5l-25 62q0 19 2 42t8 47t18 48t32 47q40 44 99.5 64.5t144.5 20.5h329 q83 0 148.5 -40t97.5 -109q23 -50 23 -102q0 -18 -7.5 -63.5t-59.5 -108.5q-48 -57 -111.5 -106t-134.5 -94q37 -31 63 -50t43 -29.5t26.5 -14.5t12.5 -5h374v-189h-376q-20 0 -46 6.5t-62.5 26t-86.5 56t-118 95.5q-80 -47 -156 -95.5t-135 -100t-95.5 -107t-36.5 -115.5 q0 -74 22 -127.5t58 -91t83.5 -61t97.5 -36.5t100 -17.5t92 -4.5h464v-189zM460 677q15 -17 38.5 -42.5t52.5 -55.5t62 -64t68 -68l32 -28q75 45 139.5 92.5t106.5 98.5q23 25 23 51q0 11 -4 22q-9 20 -29.5 30t-46.5 10h-329q-29 0 -48.5 -2.5t-31 -6.5t-17 -7.5t-7.5 -4.5 q-7 -11 -9 -25z"></glyph>
      <glyph glyph-name="uni0643.init" unicode="ك" d="M-23 0v189h586q72 0 119.5 16.5t61.5 45.5q7 15 7 34q0 17 -9.5 48.5t-40.5 83t-76 108.5t-97 114t-107 111.5t-106 101t-93 82t-69 54.5l19 213l915 402l76 -172l-801 -350q30 -30 77 -75.5t102 -101t112 -118t108 -125.5t90.5 -123.5t58.5 -111.5q17 -44 24 -82 q5 -33 5 -60q0 -5 -0.5 -23t-7 -43t-14.5 -43q-11 -25 -34 -55.5t-64.5 -57t-103.5 -44.5t-152 -18h-586z"></glyph>
      <glyph glyph-name="uni0643.medi" unicode="ك" d="M1258 0h-15q-89 0 -158.5 17t-126.5 48.5t-105 76t-94 99.5q-2 -5 -4 -9t-4 -9q-28 -55 -78.5 -99t-119.5 -73q-59 -26 -131 -38.5t-150 -12.5h-294v189h294q58 0 108.5 8.5t91 24t69 37.5t42.5 49q13 27 13 61q0 27 -14 77.5t-77 135.5q-89 125 -151 212t-101 142 q-46 64 -75 105l37 140l918 424l78 -173l-819 -375l397 -551q61 -82 109 -141.5t97.5 -98.5t108 -58t139.5 -19h15v-189z"></glyph>
      <glyph glyph-name="uni0643" unicode="ك" d="M920 487l-22 111q67 13 117 27.5t84.5 28t53 24.5t22.5 17q-6 2 -21.5 2.5t-32.5 0t-33.5 -1.5t-25.5 -2q-28 -2 -57 -2h-9q-25 0 -50.5 5.5t-48 20t-35.5 43.5q-11 24 -11 49q0 115 223 247l57 -98q-53 -32 -89 -58.5t-57.5 -46.5t-30.5 -33.5t-9 -18.5q6 -2 20 -2 t30.5 1.5t33 3.5t26.5 2q26 2 52.5 2.5t51.5 -3.5q24 -4 41 -12t28.5 -18.5t18 -22.5t10.5 -23q5 -18 5 -34q0 -30 -16 -58q-58 -98 -326 -151zM480 0q-70 1 -133 24.5t-111 68.5q-20 18 -40 44t-36 61.5t-26.5 80t-10.5 100.5q0 50 10 110t23 113.5t24 93t14 48.5l180 -57 l-17 -59.5t-21 -82.5t-17.5 -88.5t-7.5 -77.5q0 -66 21 -104t49.5 -57t57 -24t43.5 -5h1001q92 0 143.5 13.5t79.5 41.5q20 19 29.5 53.5t9.5 91.5v1039h188v-1039q0 -34 -3 -70.5t-13 -73.5t-29 -72.5t-51 -66.5q-29 -27 -62.5 -46.5t-76.5 -33t-96 -20t-119 -6.5h-1003z "></glyph>
      <glyph glyph-name="uni0643.fina" unicode="ك" d="M920 487l-22 111q67 13 117 27.5t84.5 28t53 24.5t22.5 17q-6 2 -21.5 2.5t-32.5 0t-33.5 -1.5t-25.5 -2q-28 -2 -57 -2h-9q-25 0 -50.5 5.5t-48 20t-35.5 43.5q-11 24 -11 49q0 115 223 247l57 -98q-53 -32 -89 -58.5t-57.5 -46.5t-30.5 -33.5t-9 -18.5q6 -2 20 -2 t30.5 1.5t33 3.5t26.5 2q26 2 52.5 2.5t51.5 -3.5q24 -4 41 -12t28.5 -18.5t18 -22.5t10.5 -23q5 -18 5 -34q0 -30 -16 -58q-58 -98 -326 -151zM480 0q-70 1 -133 24.5t-111 68.5q-20 18 -40 44t-36 61.5t-26.5 80t-10.5 100.5q0 50 10 110t23 113.5t24 93t14 48.5l180 -57 l-17 -59.5t-21 -82.5t-17.5 -88.5t-7.5 -77.5q0 -66 21 -104t49.5 -57t57 -24t43.5 -5h983q105 0 162.5 19.5t83.5 49t30.5 64.5t4.5 67v1038h188v-1038q0 -35 6.5 -70.5t26 -64.5t54.5 -47t93 -18h46v-189h-46q-77 0 -145.5 28t-129.5 90q-115 -118 -374 -118h-985z"></glyph>
      <glyph glyph-name="uni0644" unicode="ل" d="M583 -553q-134 0 -243.5 58.5t-177.5 164.5q-27 43 -52 113t-29 169q-1 15 -1 31q0 87 24.5 205t101.5 278l170 -81q-47 -96 -73.5 -184t-32.5 -166q-2 -27 -2 -53q0 -48 10 -103t43 -108q42 -64 110.5 -99.5t151.5 -35.5h72q114 0 186.5 24t113 68.5t55.5 106.5t15 139 v1453h186v-1453q0 -525 -556 -527h-72z"></glyph>
      <glyph glyph-name="uni0644.init" unicode="ل" d="M-20 189h34q92 0 143.5 13.5t79.5 41.5q20 19 29.5 53.5t9.5 91.5v1039h188v-1039q0 -34 -3 -70.5t-13 -73.5t-29 -72.5t-51 -66.5q-29 -27 -62.5 -46.5t-76.5 -33t-96 -20t-119 -6.5h-34v189z"></glyph>
      <glyph glyph-name="uni0644.medi" unicode="ل" d="M-20 189h16q105 0 162.5 19.5t83.5 49t30.5 64.5t4.5 67v1038h188v-1038q0 -35 6.5 -70.5t26 -64.5t54.5 -47t93 -18h16v-189h-16q-77 0 -145.5 28t-129.5 90q-115 -118 -374 -118h-16v189z"></glyph>
      <glyph glyph-name="uni0644.fina" unicode="ل" d="M583 -552q-134 0 -243.5 58.5t-177.5 164.5q-27 43 -52 113t-29 169q-1 15 -1 31q0 87 24.5 205t101.5 278l170 -81q-47 -96 -73.5 -184t-32.5 -166q-2 -27 -2 -53q0 -48 10 -103t43 -108q42 -64 110.5 -99.5t151.5 -35.5h71q115 0 187 24t113 68t56 106.5t15 139.5v1452 h186v-1063q1 -40 14.5 -72t37.5 -55t56 -35.5t71 -12.5h33v-189h-33q-99 0 -179 44v-69q0 -527 -557 -527h-71z"></glyph>
      <glyph glyph-name="uni0645" unicode="م" d="M308 -660h-188v1036l182 106q29 -16 60 -33q26 -14 56.5 -31t59.5 -31q15 90 34.5 162.5t48.5 130.5q97 195 306 195q91 0 166.5 -37.5t127.5 -109.5q44 -60 66.5 -138t22.5 -166q0 -97 -16.5 -167t-43 -118t-60 -76.5t-67.5 -44t-66 -20.5t-55 -5q-17 0 -44 5t-73 21 t-116 46t-173 81q-69 34 -129.5 65.5t-98.5 52.5v-924zM655 298q85 -42 140 -65t87 -34.5t45 -14t15 -2.5q11 0 31.5 4t40 26.5t34 71.5t14.5 140q0 11 -1.5 35t-8 53t-19 60t-34 56.5t-54 42t-78.5 16.5q-39 0 -70 -14t-56.5 -56t-46 -118.5t-39.5 -200.5z"></glyph>
      <glyph glyph-name="uni0645.init" unicode="م" d="M705 141q7 0 19.5 1t27 8t29 21.5t26 41t19 68t7.5 101.5q0 11 -2 35t-9 53.5t-20.5 60.5t-36.5 57t-56 42.5t-80 16.5q-44 0 -74.5 -15.5t-51.5 -42.5t-35 -63.5t-26 -79t-24 -89t-28 -92.5q52 -26 96 -49t82 -39.5t71.5 -26t65.5 -9.5zM629 835q98 0 170.5 -37.5 t120.5 -100.5t71.5 -145t23.5 -170q0 -97 -16.5 -167t-43.5 -117.5t-60.5 -76.5t-68 -44t-66.5 -20t-55 -5q-49 0 -94 10t-92 28.5t-98.5 45.5t-113.5 61q-82 -97 -211 -97h-115v189h115q38 0 62.5 28t42.5 73t33 103t34.5 119t46.5 119t68.5 103t101 73t144.5 28z"></glyph>
      <glyph glyph-name="uni0645.medi" unicode="م" d="M1155 0q-72 0 -135 21t-114 60q-27 -42 -59.5 -67.5t-65 -39t-62.5 -18t-52 -4.5q-49 0 -94 10t-92 28.5t-98.5 45.5t-113.5 61q-82 -97 -211 -97h-78v189h78q38 0 62.5 28t42.5 73t33 103t34.5 119t46.5 119t68.5 103t101 73t144.5 28q98 0 170.5 -37.5t120.5 -100.5 t71.5 -145t23.5 -170q0 -66 23.5 -104.5t54 -58t60 -25t40.5 -5.5h35v-189h-35zM667 141q8 0 20 1t26.5 8t29 21.5t26 41t19 68t7.5 101.5q0 11 -2 35t-9 53.5t-20.5 60.5t-36.5 57t-56 42.5t-80 16.5q-44 0 -74.5 -15.5t-51.5 -42.5t-35 -63.5t-26 -79t-24 -89t-28 -92.5 q52 -26 96 -49t82 -39.5t71.5 -26t65.5 -9.5z"></glyph>
      <glyph glyph-name="uni0645.fina" unicode="م" d="M1490 0q-85 0 -149.5 25t-116.5 73q-27 -34 -57 -54.5t-60 -32t-57.5 -15t-47.5 -3.5q-17 0 -44 5t-73 21t-116 46t-173 81q-69 34 -129.5 65.5t-98.5 52.5v-924h-188v1036l182 106q29 -16 60 -33q26 -14 56.5 -31t59.5 -31q15 90 34.5 162.5t48.5 130.5q97 195 306 195 q93 0 164.5 -37.5t120 -99.5t73.5 -144t25 -170q0 -17 -0.5 -32.5t-1.5 -29.5q0 -55 22.5 -89t52.5 -52.5t60.5 -25t46.5 -6.5h33v-189h-33zM705 308q85 -42 141.5 -66.5t90.5 -38t48.5 -17.5t16.5 -4q11 0 32.5 4t43 26.5t37.5 71.5t16 140q0 11 -2.5 35t-9.5 53t-20.5 60 t-36.5 56.5t-56 42t-79 16.5q-39 0 -71.5 -12.5t-59.5 -52.5t-49.5 -115t-41.5 -199z"></glyph>
      <glyph glyph-name="uni0647" unicode="ه" d="M525 0q-90 0 -165.5 27.5t-131 76t-86.5 115t-31 144.5q0 100 26.5 176.5t67.5 138t90 112.5t94 100l-62 69l140 127q52 -58 107.5 -116.5t108.5 -118t99.5 -119t81.5 -119t56 -118.5q19 -57 19 -112v-6q-1 -81 -32.5 -151.5t-91.5 -124.5q-56 -48 -130.5 -74.5 t-159.5 -26.5zM512 755q-38 -43 -76 -85.5t-68 -89.5t-49 -100t-19 -117q0 -45 19.5 -77.5t51 -54t72 -32t82.5 -10.5q51 0 92.5 13.5t71 38.5t45.5 59.5t16 76.5q0 50 -21 98.5t-54.5 95.5t-76.5 93t-86 91z"></glyph>
      <glyph glyph-name="uni0647.init" unicode="ه" d="M629 258q37 16 68.5 40t55 54.5t36.5 66.5t13 78q0 50 -21 84.5t-50 56t-60.5 31t-53.5 9.5q-41 0 -75.5 -12.5t-60 -34.5t-40 -53t-14.5 -67q0 -43 11.5 -77.5t36 -64t62.5 -56.5t92 -55zM884 1052q110 -115 203 -215q40 -43 80 -86.5t74.5 -83t61 -72t39.5 -52.5 q27 -44 44.5 -85t24.5 -83q4 -25 4 -51q0 -17 -3 -48t-18 -82q-16 -58 -50.5 -105.5t-83.5 -81.5t-111 -52.5t-134 -18.5q-68 0 -141 18t-151 56q-22 9 -41 18q-17 8 -34.5 16t-28.5 14q-94 -29 -220 -43.5t-272 -14.5h-147v189h147q65 0 134.5 2t123.5 9q-72 63 -105 138.5 t-33 172.5q0 76 28 140.5t77.5 111.5t117 73.5t147.5 26.5q60 0 110 -17t91 -45.5t71.5 -66t51.5 -78t31.5 -82t10.5 -77.5q0 -103 -38.5 -185.5t-113.5 -145.5q42 -17 89.5 -28t94.5 -11q30 0 59.5 4t56 16t48.5 32.5t38 53.5q13 27 13 59q0 15 -6.5 48t-38.5 89t-81 116.5 t-108 123.5t-123 126t-125 125z"></glyph>
      <glyph glyph-name="uni0647.medi" unicode="ه" d="M406 223q33 5 65.5 13t63.5 17q99 30 153 65.5t79 68.5t29 60.5t4 42.5q0 92 -43 133.5t-137 41.5q-36 0 -71.5 -15t-64.5 -62t-50 -134t-28 -231zM620 853q86 0 154.5 -24.5t116 -71.5t72.5 -114.5t25 -152.5q0 -51 -16 -108.5t-60 -113.5t-122 -106.5t-202 -87.5 q-88 -29 -179 -42q13 -65 47.5 -124.5t83.5 -110t108.5 -89.5t123.5 -63q-24 27 -36.5 64t-16.5 78q-2 18 -2 36q0 22 4 54t16 65q22 56 58 101.5t83 78t102.5 50t115.5 17.5h184v-189h-184q-63 0 -111 -33.5t-70 -90.5q-14 -35 -14 -72q0 -33 18 -85.5t85 -111.5l-62 -166 q-97 0 -185 22.5t-164 62t-138.5 93.5t-110.5 117t-79 132.5t-43 140.5q-64 -5 -122.5 -7t-119.5 -2v189q52 0 110.5 2t124.5 7q5 128 20 223t42 170q30 81 71 132t87.5 80t94.5 39.5t90 10.5z"></glyph>
      <glyph glyph-name="uni0647.fina" unicode="ه" d="M1275 0h-25q-160 0 -279.5 68.5t-183.5 191.5q-32 -44 -76.5 -76.5t-100.5 -57.5q-32 -13 -74 -21t-89 -8t-96.5 11t-96.5 37q-72 38 -115.5 100.5t-57.5 147.5q-7 39 -7 77q0 64 25.5 143t103.5 160q137 140 387 214l-19 108l184 39q24 -100 42 -177.5t32 -139.5 q3 -12 9.5 -40t15.5 -64.5t19 -78.5t20 -82t19 -75t16 -58q20 -75 59 -120.5t85 -70t93.5 -32t84.5 -7.5h25v-189zM640 805q-99 -29 -175 -69t-125.5 -88.5t-70.5 -104.5q-14 -37 -14 -76q0 -20 4 -41q7 -42 30 -70.5t54 -45.5q22 -13 48 -18.5t52 -5.5h10q21 0 43 3.5 t41 11.5q126 52 147 189q4 32 4 60q0 15 -3 42t-6 41z"></glyph>
      <glyph glyph-name="uni0648" unicode="و" d="M193 -363q151 0 254 23t163 71q52 42 76.5 107t24.5 162h-184q-70 0 -142 21t-130.5 69t-95.5 125.5t-37 189.5q0 66 11.5 119.5t29 95.5t38.5 73t41 53q55 55 126 85t152 30q71 0 133 -22t111 -66q135 -126 135 -395v-378q0 -142 -41.5 -244.5t-128.5 -171.5 q-88 -69 -218.5 -102.5t-317.5 -33.5v189zM520 672q-99 0 -154 -70t-55 -197q0 -129 78 -179q19 -12 39 -19.5t39 -11t34.5 -5t25.5 -1.5h184v189q0 73 -11 123.5t-28 83.5t-38.5 50.5t-42.5 25.5t-40 9.5t-31 1.5z"></glyph>
      <glyph glyph-name="uni0648.fina" unicode="و" d="M204 -363q151 0 254 23t163 71q52 42 76.5 107t24.5 162h-184q-70 0 -142 21t-130.5 69t-95.5 125.5t-37 189.5q0 66 11.5 119.5t29 95.5t38.5 73t41 53q55 55 126 85t152 30q71 0 133 -22t111 -66q135 -126 135 -395v-189h150v-189h-150q0 -142 -41.5 -244.5 t-128.5 -171.5q-88 -69 -218.5 -102.5t-317.5 -33.5v189zM521 672q-99 0 -154 -70t-55 -197q0 -129 78 -179q19 -12 39 -19.5t39 -11t34.5 -5t25.5 -1.5h184v189q0 73 -11 123.5t-28 83.5t-38.5 50.5t-42.5 25.5t-40 9.5t-31 1.5z"></glyph>
      <glyph glyph-name="uni0649" unicode="ى" d="M933 -361q100 0 173.5 17.5t121.5 55.5t71 99t23 148q-96 25 -188 50q-39 10 -82 21.5t-85.5 23t-83 21.5t-74.5 19q-44 107 -44 211q0 6 1.5 64t42.5 153t116 170.5t173 120.5t214 55q23 2 47 2q94 0 193 -29l-47 -181q-68 21 -138 20.5t-134.5 -20t-119.5 -56.5 t-93.5 -88.5t-55.5 -115.5q-12 -42 -12 -87q0 -26 4 -52l383 -95q80 -22 120 -72t40 -122q0 -131 -31 -229.5t-99 -163.5t-175.5 -98t-260.5 -33h-221q-76 0 -147 19t-134 53t-116 82t-93 106q-47 76 -71 167t-24 192q0 125 39.5 269.5t115.5 305.5q45 -21 84 -40.5 t82 -40.5q-132 -282 -132 -489q0 -74 18 -141t50 -121q51 -80 138 -125.5t190 -45.5h221z"></glyph>
      <glyph glyph-name="uni0649.fina" unicode="ى" d="M1514 0q42 -82 46 -155l1 -14q0 -65 -26 -123t-81 -107t-130 -82.5t-167 -52t-194 -18.5h-285q-158 0 -284 69t-206 191q-54 86 -77 191q-18 81 -18 170q0 26 4 98.5t41.5 203.5t105.5 271l168 -82q-112 -236 -127 -427q-2 -32 -2 -62q0 -152 67 -261q51 -83 136.5 -127 t191.5 -44h285q56 0 110 8.5t101 23.5t85 35.5t63.5 45.5t35.5 54q6 15 6 30q0 14 -5 28q-12 39 -56 65.5t-106 42t-134 22t-139 6.5l7 189h862v-189h-279z"></glyph>
      <glyph glyph-name="uni066E.init" unicode="ٮ" d="M518 814q2 -6 8 -32t13.5 -64.5t16.5 -85t16 -94t12 -91.5t5 -77q0 -96 -31.5 -165.5t-82 -115t-113.5 -67.5t-127 -22h-255v189h255q15 0 42.5 4.5t55 22.5t48 54t20.5 100q0 22 -3.5 55.5t-9 72t-12.5 79t-14 76.5t-13 64t-10 42z"></glyph>
      <glyph glyph-name="uni066E.medi" unicode="ٮ" d="M830 189v-189h-78q-91 0 -160.5 26t-111.5 78q-104 -104 -308 -104h-192v189h192q72 0 114 14.5t63.5 36t28 48t6.5 50.5v338h188v-331q0 -37 11 -63t28.5 -43.5t39 -27.5t41.5 -15t36 -6t24 -1h78z"></glyph>
      <glyph glyph-name="uni066E.fina" unicode="ٮ" d="M2239 189v-188h-30q-73 0 -138 21.5t-116 62.5q-6 5 -12 10.5t-12 11.5q-106 -105 -307 -106h-1135q-71 0 -133.5 24t-110.5 69q-20 18 -40 44t-36.5 61t-27 79.5t-10.5 100.5q0 50 10.5 110t23 114t24 93t14.5 48l180 -57q-7 -21 -17.5 -59.5t-21 -82.5t-18 -88.5 t-7.5 -77.5q0 -66 21 -104t49.5 -57t57.5 -24t44 -5h1126q73 0 116.5 15t66 38t29 50.5t6.5 52.5v347h189v-342q0 -57 24.5 -89.5t56.5 -48.5t62 -19.5t42 -3.5h30z"></glyph>
      <glyph glyph-name="uni066F.init" unicode="ٯ" d="M-22 0v189h444q112 0 180.5 16t106.5 40t51.5 52.5t16.5 54.5h-152q-26 0 -58 2t-66.5 7.5t-69.5 16.5t-68 29q-27 16 -55 40t-50.5 59.5t-37 84t-14.5 113.5q0 81 28 153.5t80 124.5t119 79t143 27q87 0 160 -37t123 -106q54 -72 80 -178t26 -243v-138q0 -99 -39.5 -176 t-119.5 -125q-133 -85 -384 -85h-444zM576 899q-33 0 -67.5 -11.5t-62 -35t-45 -60.5t-17.5 -88q0 -33 7 -55.5t18 -37t23 -23.5t23 -15q29 -17 71 -24.5t99 -7.5h154q-2 99 -20.5 173t-50.5 121q-48 64 -132 64z"></glyph>
      <glyph glyph-name="uni066F.medi" unicode="ٯ" d="M563 246q45 16 81 40t61.5 56t39.5 73t14 93q0 30 -15.5 60t-42 54t-60.5 39t-71 15q-42 0 -80.5 -13.5t-68 -36t-46.5 -53.5t-17 -65v-12q0 -43 13.5 -81.5t40.5 -70.5t65.5 -56.5t85.5 -41.5zM570 865q86 0 154 -30t115 -79.5t72 -114t25 -133.5q0 -97 -27.5 -175 t-83.5 -138q76 -6 164 -6h116v-189h-116q-256 0 -428 48q-88 -24 -202 -36t-260 -12h-119v189h119q109 0 195 6q-59 61 -88 139.5t-29 173.5q0 73 30.5 138t84 114t125 77t153.5 28z"></glyph>
      <glyph glyph-name="uni066F.fina" unicode="ٯ" d="M794 -554h-100q-77 0 -148 17.5t-133.5 50.5t-114 81.5t-89.5 110.5q-54 85 -78 189q-19 80 -19 168q0 26 4 98.5t41 202t105 267.5l170 -81q-56 -116 -88.5 -222.5t-40.5 -201.5q-3 -32 -3 -62q0 -60 13.5 -127.5t54.5 -131.5q50 -81 135 -125.5t191 -44.5h90v2 q151 0 254 23t163 71q52 42 76.5 107t24.5 162h-184q-70 0 -142 21t-130.5 69t-95.5 125.5t-37 189.5q0 66 11.5 119.5t29 95.5t38.5 73t41 53q55 55 126 85t152 30q71 0 133 -22t111 -66q135 -126 135 -395v-189h187v-189h-187q0 -142 -41.5 -244.5t-128.5 -171.5 t-214.5 -102t-311.5 -34v-2zM1111 672q-99 0 -154 -70t-55 -197q0 -129 78 -179q19 -12 39 -19.5t39 -11t34.5 -5t25.5 -1.5h184v189q0 73 -11 123.5t-28 83.5t-38.5 50.5t-42.5 25.5t-40 9.5t-31 1.5z"></glyph>
      <glyph glyph-name="uni06C1.init" unicode="ہ" d="M471 -612q-1 -29 -14.5 -53t-35.5 -42t-49 -28t-55 -10q-43 0 -75.5 16.5t-54 45t-32.5 65t-11 77.5q0 107 65 205t178 175l53 -80q-28 -18 -56.5 -43t-52 -52.5t-39 -55t-16.5 -49.5v-5q0 -20 13.5 -34.5t49.5 -16.5q29 -4 52 -11.5t40 -20.5t27 -33t13 -50zM523 814 q2 -6 8 -32t13.5 -64.5t16.5 -85t16 -94t12 -91.5t5 -77q0 -96 -31.5 -165.5t-82 -115t-113.5 -67.5t-127 -22h-255v189h255q15 0 42.5 4.5t55 22.5t48 54t20.5 100q0 22 -3.5 55.5t-9 72t-12.5 79t-14 76.5t-13 64t-10 42z"></glyph>
      <glyph glyph-name="uni06C1.medi" unicode="ہ" d="M404 21q2 -60 21 -131t51.5 -138.5t78.5 -125t102 -91.5q-14 60 -15 132v9q0 67 13 137t41.5 138.5t73 121t105.5 84.5t140 32h184v-189h-184q-43 -17 -79.5 -51t-62 -78.5t-39.5 -97t-14 -107.5t16.5 -110.5t51.5 -104.5l-78 -149q-90 1 -166.5 30.5t-140.5 80t-114 118 t-86.5 145t-58.5 160.5t-29 164h-230v189h412z"></glyph>
      <glyph glyph-name="uni06BE" unicode="ھ" d="M741 263q75 33 119 91.5t44 142.5q0 50 -19.5 84.5t-47.5 55.5t-58 30.5t-52 9.5q-41 0 -74.5 -12.5t-57.5 -34.5t-37 -52.5t-13 -66.5q0 -43 10.5 -76.5t34 -62.5t60.5 -55t91 -54zM994 1052q110 -115 203 -215q40 -43 80 -86.5t74.5 -83t61 -72t39.5 -52.5 q27 -44 44.5 -85t24.5 -83q4 -25 4 -51q0 -17 -3 -48t-18 -82q-16 -58 -50.5 -105.5t-83.5 -81.5t-111 -52.5t-134 -18.5q-68 0 -141 18t-151 56q-22 9 -41 18q-17 8 -34.5 16t-28.5 14q-47 -15 -112.5 -30t-146.5 -22q-50 -5 -105 -5q-34 0 -99.5 3t-170.5 27l34 181 q73 -14 129.5 -18.5t100.5 -4.5q43 0 76 4t60 7q-72 63 -105 138.5t-33 172.5q0 76 28 140.5t77.5 111.5t117 73.5t147.5 26.5q60 0 110 -17t91 -45.5t71.5 -66t51.5 -78t31.5 -82t10.5 -77.5q0 -103 -38.5 -185.5t-113.5 -145.5q42 -17 89.5 -28t94.5 -11q61 0 113.5 24.5 t84.5 90.5q14 28 14 60q0 15 -6.5 47t-38 86.5t-80.5 114t-107.5 121.5t-122 124.5t-124.5 124.5z"></glyph>
      <glyph glyph-name="uni06D2" unicode="ے" d="M1634 -364v-188h-1145q-84 0 -156 26.5t-125 76t-83 120t-30 157.5q0 76 32.5 142t87.5 115t126 76.5t148 27.5h403v-189h-395q-43 0 -83.5 -13.5t-72 -38t-50.5 -58.5t-19 -74t19 -73t49.5 -57t69.5 -37t79 -13h1145z"></glyph>
      <glyph glyph-name="uni06D2.fina" unicode="ے" d="M1288 -364v-188h-799q-84 0 -156 26.5t-125 76t-83 120t-30 157.5q0 76 32.5 142t87.5 115t126 76.5t148 27.5h840v-189h-832q-43 0 -83.5 -13.5t-72 -38t-50.5 -58.5t-19 -74t19 -73t49.5 -57t69.5 -37t79 -13h799z"></glyph>
      <glyph glyph-name="uni06A9" unicode="ک" d="M1059 -8h-594q-70 1 -133 24.5t-111 68.5q-20 18 -40 44t-36 61.5t-26.5 80t-10.5 100.5q0 50 10 110t23 113.5t24 93t14 48.5l180 -57l-17 -59.5t-21 -82.5t-17.5 -88.5t-7.5 -77.5q0 -66 21 -104t49.5 -57t57 -24t43.5 -5l590 -1q124 0 220 3t164.5 14t109.5 32t56 57 q4 11 4 25q0 16 -8.5 44.5t-32.5 72t-58.5 90.5t-75.5 93q-81 89 -152 155t-127.5 112t-96.5 72.5t-60 37.5l15 227l902 388l76 -172l-791 -342q38 -28 82.5 -64.5t92.5 -81.5t98 -97.5t100 -110.5q38 -46 75 -96t66 -102.5t47 -106t18 -106.5v-18.5t-2 -19.5 q-9 -71 -40.5 -120.5t-80.5 -82t-114.5 -51t-143 -27.5t-164.5 -11q-86 -2 -177 -2z"></glyph>
      <glyph glyph-name="uni06A9.fina" unicode="ک" d="M1058 -5h-593q-70 1 -133 24.5t-111 68.5q-20 18 -40 44t-36 61.5t-26.5 80t-10.5 100.5q0 50 10 110t23 113.5t24 93t14 48.5l180 -57l-17 -59.5t-21 -82.5t-17.5 -88.5t-7.5 -77.5q0 -66 21 -104t49.5 -57t57 -24t43.5 -5l590 -1q113 0 198.5 6.5t145 20t94.5 32.5 t48 45q17 33 16.5 69t-13.5 73t-36 75.5t-51 77.5l-316 441l35 164l899 412l77 -172l-806 -370l342 -481q79 -105 137 -178.5t112 -120t111 -67.5t133 -21h21v-189h-21q-86 0 -152.5 17t-121.5 48.5t-103 76.5t-96 100q-20 -62 -55.5 -104t-83.5 -69.5t-106.5 -42.5 t-124.5 -22t-138 -8t-144 -1z"></glyph>
      <glyph glyph-name="uni06AF" unicode="گ" d="M1069 -6h-594q-70 1 -133 24.5t-111 68.5q-20 18 -40 44t-36 61.5t-26.5 80t-10.5 100.5q0 50 10 110t23 113.5t24 93t14 48.5l180 -57l-17 -59.5t-21 -82.5t-17.5 -88.5t-7.5 -77.5q0 -66 21 -104t49.5 -57t57 -24t43.5 -5l590 -1q124 0 220 3t164.5 14t109.5 32t56 57 q4 11 4 25q0 16 -8.5 44.5t-32.5 72t-58.5 90.5t-75.5 93q-81 89 -152 155t-127.5 112t-96.5 72.5t-60 37.5l15 227l902 388l76 -172l-791 -342q38 -28 82.5 -64.5t92.5 -81.5t98 -97.5t100 -110.5q38 -46 75 -96t66 -102.5t47 -106t18 -106.5v-18.5t-2 -19.5 q-9 -71 -40.5 -120.5t-80.5 -82t-114.5 -51t-143 -27.5t-164.5 -11q-86 -2 -177 -2zM1032.07 1488.56l790.178 334.484l43.7246 -92.0596l-845.354 -360.057z"></glyph>
      <glyph glyph-name="uni06AF.init" unicode="گ" d="M-23 0v189h586q72 0 119.5 16.5t61.5 45.5q7 15 7 34q0 17 -9.5 48.5t-40.5 83t-76 108.5t-97 114t-107 111.5t-106 101t-93 82t-69 54.5l19 213l915 402l76 -172l-801 -350q30 -30 77 -75.5t102 -101t112 -118t108 -125.5t90.5 -123.5t58.5 -111.5q17 -44 24 -82 q5 -33 5 -60q0 -5 -0.5 -23t-7 -43t-14.5 -43q-11 -25 -34 -55.5t-64.5 -57t-103.5 -44.5t-152 -18h-586zM205 1487l759 327l42 -90l-812 -352z"></glyph>
      <glyph glyph-name="uni06AF.medi" unicode="گ" d="M1260 0h-15q-89 0 -158.5 17t-126.5 48.5t-105 76t-94 99.5q-2 -5 -4 -9t-4 -9q-28 -55 -78.5 -99t-119.5 -73q-59 -26 -131 -38.5t-150 -12.5h-294v189h294q58 0 108.5 8.5t91 24t69 37.5t42.5 49q13 27 13 61q0 27 -14 77.5t-77 135.5q-89 125 -151 212t-101 142 q-46 64 -75 105l37 140l918 424l78 -173l-819 -375l397 -551q61 -82 109 -141.5t97.5 -98.5t108 -58t139.5 -19h15v-189zM236 1467l759 327l42 -90l-812 -352z"></glyph>
      <glyph glyph-name="uni06AF.fina" unicode="گ" d="M1058 -5h-593q-70 1 -133 24.5t-111 68.5q-20 18 -40 44t-36 61.5t-26.5 80t-10.5 100.5q0 50 10 110t23 113.5t24 93t14 48.5l180 -57l-17 -59.5t-21 -82.5t-17.5 -88.5t-7.5 -77.5q0 -66 21 -104t49.5 -57t57 -24t43.5 -5l590 -1q113 0 198.5 6.5t145 20t94.5 32.5 t48 45q17 33 16.5 69t-13.5 73t-36 75.5t-51 77.5l-316 441l35 164l899 412l77 -172l-806 -370l342 -481q79 -105 137 -178.5t112 -120t111 -67.5t133 -21h21v-189h-21q-86 0 -152.5 17t-121.5 48.5t-103 76.5t-96 100q-20 -62 -55.5 -104t-83.5 -69.5t-106.5 -42.5 t-124.5 -22t-138 -8t-144 -1zM1186 1468l759 327l42 -90l-812 -352z"></glyph>
      <glyph glyph-name="uni06BA" unicode="ں" d="M682 -554q-155 0 -281 67.5t-204 192.5q-54 85 -77 189q-19 80 -19 168q0 26 4.5 98.5t41.5 202t103 267.5l170 -81q-56 -116 -88.5 -222.5t-40.5 -201.5q-3 -32 -3 -62q0 -60 13.5 -127.5t54.5 -131.5q52 -81 136 -125.5t190 -44.5h235q115 0 187.5 24.5t113 68.5 t55 106.5t14.5 138.5v703h189v-703q0 -264 -140 -395.5t-419 -131.5h-235z"></glyph>
      <glyph glyph-name="uni06BA.fina" unicode="ں" d="M681 -554q-155 0 -281 67.5t-204 192.5q-54 85 -77 189q-18 80 -18 168q0 26 4 98.5t41 202t103 267.5l170 -81q-56 -116 -88.5 -222.5t-40.5 -201.5q-2 -32 -2 -62q0 -60 13 -127.5t54 -131.5q52 -81 136 -125.5t190 -44.5h235q115 0 187.5 24.5t113 68.5t55 106.5 t14.5 138.5v703h189v-311q1 -40 14.5 -72.5t36.5 -55.5t55.5 -35.5t72.5 -12.5h39v-189h-39q-98 0 -179 43v-70q0 -264 -140 -395.5t-419 -131.5h-235z"></glyph>
      <glyph glyph-name="uni062F.fina" unicode="د" d="M1265 189v-189h-37q-149 0 -275 124q-75 -101 -263 -128q-35 -5 -74 -8t-81 -3q-51 0 -103 4.5t-101.5 14t-95.5 25t-83 36.5l-82 48l94 165l83 -48q35 -20 85.5 -32.5t107.5 -17.5q43 -4 86 -4q15 0 51 0.5t86 7.5q58 9 95.5 25.5t47.5 37.5q9 10 9 25q0 10 -7 32.5 t-31 59.5l-375 571l159 104l388 -592q30 -43 60.5 -88.5t64.5 -83t71.5 -62t82.5 -24.5h37z"></glyph>
      <glyph glyph-name="uni06C1.fina" unicode="ہ" d="M1302 0h-58q-29 0 -63.5 3t-72.5 12t-78 24t-80 39q-78 49 -130.5 122t-76.5 168q-17 66 -33 128t-32 125.5t-32.5 131.5t-35.5 146l-120 -25q-105 -27 -143 -94q-29 -49 -31 -118v-26q0 -57 11 -127t32.5 -149t42.5 -148l28 -92l-182 -51q-7 21 -13 43.5t-14 46.5 q-25 85 -50 179.5t-36 188.5q-7 54 -7 106q0 39 6.5 102.5t49.5 138.5q81 140 262 182q20 5 55.5 13t70.5 15.5t61.5 12.5t28.5 5l111 -72q22 -96 41.5 -176.5t37.5 -153t36 -141.5t37 -143t58 -118.5t85 -68.5t93 -32t83 -8h58v-189z"></glyph>
      <glyph glyph-name="uni0686" unicode="چ" d="M1369 591q-2 -1 -38 -12.5t-113.5 -38t-201 -70t-300.5 -109.5q-111 -41 -188 -77.5t-126.5 -72t-75.5 -72t-36 -76.5q-8 -32 -8 -67q0 -10 1.5 -39t8.5 -86q15 -117 53 -198.5t98 -131.5t141 -72.5t182 -22.5h502v-189h-502q-143 0 -256.5 33t-196.5 104t-135 182.5 t-73 269.5q-9 71 -9 133q0 76 20 161t90 162.5t182 132t263 102.5l462 150q-97 39 -194 74t-178.5 61.5t-139.5 43t-77 19.5q-17 0 -35.5 -3t-36.5 -18t-35 -46.5t-32 -88.5l-183 48q77 296 324 296q7 0 16.5 -0.5t29 -5t50.5 -14t81 -26.5t121 -43.5t170 -65.5l368 -150z M932.949 -400.057l-136.661 135.86l132.865 132.06l134.763 -132.06zM1262.26 13.2246l-153.744 -153.912l-148.05 153.912l149.948 152.012zM898.784 11.3242l-153.744 -153.911l-148.05 153.911l149.948 152.012z"></glyph>
      <glyph glyph-name="uni0686.fina" unicode="چ" d="M1169 474q1 -82 11 -135q11 -57 32 -90t52 -46.5t71 -13.5h253v-189h-253q-63 0 -124.5 21t-110.5 69.5t-79 127.5q-31 78 -31 194q-124 -44 -301 -110q-111 -41 -188 -77.5t-126.5 -72t-75.5 -72t-36 -76.5q-8 -32 -8 -67q0 -10 1.5 -39t8.5 -86q15 -117 53 -198.5 t98 -131.5t141 -72.5t182 -22.5h502v-189h-502q-143 0 -256.5 33t-196.5 104t-135 182.5t-73 269.5q-9 71 -9 133q0 76 20 161t90 162.5t182 132t263 102.5l462 150q-97 39 -194 74t-178.5 61.5t-139.5 43t-77 19.5q-17 0 -35.5 -3t-36.5 -18t-35 -46.5t-32 -88.5l-183 48 q77 296 324 296q7 0 16.5 -0.5t29 -5t50.5 -14t81 -26.5t121 -43.5t170 -65.5l368 -150l7 -177q-2 -1 -38 -12.5t-113 -37.5zM784.924 -506.919l-132.987 132.168l129.293 128.472l131.141 -128.472zM1105.39 -104.868l-149.61 -149.729l-144.069 149.729l145.916 147.881z M751.677 -106.717l-149.61 -149.729l-144.07 149.729l145.917 147.881z"></glyph>
      <glyph glyph-name="uni0623" unicode="أ" d="M389 0h-189v1277h189v-1277zM29 1369l9 127l124 37q-54 43 -74 104q-9 27 -9 54q0 12 3.5 38.5t23 61t51 60t69.5 36.5q27 9 54 9.5t52.5 -3t48.5 -11t43 -14.5l-25 -101q-17 4 -36 8t-38 6.5t-36 2t-28 -4.5q-17 -6 -31.5 -16.5t-24 -24t-12.5 -30.5q-1 -6 -1 -12 q0 -12 4 -25q6 -20 22.5 -36.5t44.5 -25.5t67 -9t92 14l85 25l34 -108z"></glyph>
      <glyph glyph-name="uni0623.fina" unicode="أ" d="M626 0q-95 1 -163.5 14.5t-116 39t-76 64t-44.5 90t-21 115.5t-5 142v809h189v-809q0 -87 5.5 -141t29 -83.5t71 -40t131.5 -11.5v-189zM17 1375l9 127l124 37q-54 43 -74 104q-9 27 -9 54q0 12 3.5 38.5t23 61t51 60t69.5 36.5q27 9 54 9.5t52.5 -3t48.5 -11t43 -14.5 l-25 -101q-17 4 -36 8t-38 6.5t-36 2t-28 -4.5q-17 -6 -31.5 -16.5t-24 -24t-12.5 -30.5q-1 -6 -1 -12q0 -12 4 -25q6 -20 22.5 -36.5t44.5 -25.5t67 -9t92 14l85 25l34 -108z"></glyph>
      <glyph glyph-name="uni0625" unicode="إ" d="M389 1h-189v1426h189v-1426zM58 -684l9 127l124 37q-54 43 -74 104q-9 27 -9 54q0 12 3.5 38.5t23 61t51 60t69.5 36.5q27 9 54 9.5t52.5 -3t48.5 -11t43 -14.5l-25 -101q-17 4 -36 8t-38 6.5t-36 2t-28 -4.5q-17 -6 -31.5 -16.5t-24 -24t-12.5 -30.5q-1 -6 -1 -12 q0 -12 4 -25q6 -20 22.5 -36.5t44.5 -25.5t67 -9t92 14l85 25l34 -108z"></glyph>
      <glyph glyph-name="uni0625.fina" unicode="إ" d="M636 0q-105 1 -173.5 14.5t-116 39t-76 64t-44.5 90t-21 115.5t-5 142v962h189v-962q0 -87 5.5 -141t29 -83.5t71 -40t141.5 -11.5v-189zM82 -675l9 127l124 37q-54 43 -74 104q-9 27 -9 54q0 12 3.5 38.5t23 61t51 60t69.5 36.5q27 9 54 9.5t52.5 -3t48.5 -11t43 -14.5 l-25 -101q-17 4 -36 8t-38 6.5t-36 2t-28 -4.5q-17 -6 -31.5 -16.5t-24 -24t-12.5 -30.5q-1 -6 -1 -12q0 -12 4 -25q6 -20 22.5 -36.5t44.5 -25.5t67 -9t92 14l85 25l34 -108z"></glyph>
      <glyph glyph-name="uni0622" unicode="آ" d="M573 0h-189v1277h189v-1277zM900 1438h-483q-63 0 -106 -5t-72.5 -20t-48 -43t-32.5 -74l-158 47q46 161 167 221q51 26 113 33.5t137 7.5h483v-167z"></glyph>
      <glyph glyph-name="uni0622.fina" unicode="آ" d="M820 0q-95 1 -163.5 14.5t-116 39t-76 64t-44.5 90t-21 115.5t-5 142v809h189v-809q0 -87 5.5 -141t29 -83.5t71 -40t131.5 -11.5v-189zM897 1437h-483q-63 0 -106 -5t-72.5 -20t-48 -43t-32.5 -74l-158 47q46 161 167 221q51 26 113 33.5t137 7.5h483v-167z"></glyph>
      <glyph glyph-name="uni0671" unicode="ٱ" d="M389 0h-189v1277h189v-1277zM6 1433l19 85h129l47 73l83 122q38 46 84 77t103 31q33 0 64.5 -12t56.5 -37.5t40.5 -64.5t15.5 -92q0 -51 -17 -85.5t-43 -56t-58.5 -31t-63.5 -9.5h-460zM466 1518q42 0 69 23t27 74q0 58 -23.5 89.5t-67.5 31.5q-32 0 -61 -20t-56 -51.5 t-51.5 -69.5t-45.5 -74q-1 -1 -1 -3h210z"></glyph>
      <glyph glyph-name="uni0671.fina" unicode="ٱ" d="M626 0q-95 1 -163.5 14.5t-116 39t-76 64t-44.5 90t-21 115.5t-5 142v809h189v-809q0 -87 5.5 -141t29 -83.5t71 -40t131.5 -11.5v-189zM6 1433l19 85h129l47 73l83 122q38 46 84 77t103 31q33 0 64.5 -12t56.5 -37.5t40.5 -64.5t15.5 -92q0 -51 -17 -85.5t-43 -56 t-58.5 -31t-63.5 -9.5h-460zM466 1518q42 0 69 23t27 74q0 58 -23.5 89.5t-67.5 31.5q-32 0 -61 -20t-56 -51.5t-51.5 -69.5t-45.5 -74q-1 -1 -1 -3h210z"></glyph>
      <glyph glyph-name="uni0628" unicode="ب" d="M1698 185q37 0 69 13t55 36q43 46 43 125v11q-1 14 -3 34t-5 46q-3 25 -6.5 51.5t-8.5 56.5t-11 65t-14 79l183 31q9 -43 16 -79.5t12 -67.5q10 -63 16.5 -118.5t8.5 -88.5v-20q0 -40 -7 -78.5t-21 -73t-31.5 -60t-35.5 -43.5q-49 -52 -117 -80t-143 -28h-1254 q-70 1 -133 24.5t-111 68.5q-20 18 -40 44t-36.5 61t-26.5 80t-10 101q0 50 10 110t22.5 113.5t24 93t14.5 48.5l180 -57q-6 -21 -16.5 -59.5t-21 -82.5t-18 -88.5t-7.5 -77.5q0 -66 21 -104t49.5 -57t57 -24t43.5 -5h1252zM888 -349l170 172l174 -174l-172 -172z"></glyph>
      <glyph glyph-name="uni0628.init" unicode="ب" d="M518 814q2 -6 8 -32t13.5 -64.5t16.5 -85t16 -94t12 -91.5t5 -77q0 -96 -31.5 -165.5t-82 -115t-113.5 -67.5t-127 -22h-255v189h255q15 0 42.5 4.5t55 22.5t48 54t20.5 100q0 22 -3.5 55.5t-9 72t-12.5 79t-14 76.5t-13 64t-10 42zM172 -363l170 172l174 -174l-172 -172 z"></glyph>
      <glyph glyph-name="uni0628.medi" unicode="ب" d="M830 189v-189h-78q-91 0 -160.5 26t-111.5 78q-104 -104 -308 -104h-192v189h192q72 0 114 14.5t63.5 36t28 48t6.5 50.5v338h188v-331q0 -37 11 -63t28.5 -43.5t39 -27.5t41.5 -15t36 -6t24 -1h78zM205 -374l170 172l174 -174l-172 -172z"></glyph>
      <glyph glyph-name="uni0628.fina" unicode="ب" d="M2249 189v-188h-30q-73 0 -138 21.5t-116 62.5q-6 5 -12 10.5t-12 11.5q-106 -105 -307 -106h-1135q-71 0 -133.5 24t-110.5 69q-20 18 -40 44t-36.5 61t-27 79.5t-10.5 100.5q0 50 10.5 110t23 114t24 93t14.5 48l180 -57q-7 -21 -17.5 -59.5t-21 -82.5t-18 -88.5 t-7.5 -77.5q0 -66 21 -104t49.5 -57t57.5 -24t44 -5h1126q73 0 116.5 15t66 38t29 50.5t6.5 52.5v347h189v-342q0 -57 24.5 -89.5t56.5 -48.5t62 -19.5t42 -3.5h30zM959 -362l170 172l174 -174l-172 -172z"></glyph>
      <glyph glyph-name="uni067E" unicode="پ" d="M1698 185q37 0 69 13t55 36q43 46 43 125v11q-1 14 -3 34t-5 46q-3 25 -6.5 51.5t-8.5 56.5t-11 65t-14 79l183 31q9 -43 16 -79.5t12 -67.5q10 -63 16.5 -118.5t8.5 -88.5v-20q0 -40 -7 -78.5t-21 -73t-31.5 -60t-35.5 -43.5q-49 -52 -117 -80t-143 -28h-1254 q-70 1 -133 24.5t-111 68.5q-20 18 -40 44t-36.5 61t-26.5 80t-10 101q0 50 10 110t22.5 113.5t24 93t14.5 48.5l180 -57q-6 -21 -16.5 -59.5t-21 -82.5t-18 -88.5t-7.5 -77.5q0 -66 21 -104t49.5 -57t57 -24t43.5 -5h1252zM1083 -787l-144 143l140 139l142 -139zM1430 -352 l-162 -162l-156 162l158 160zM1047 -354l-162 -162l-156 162l158 160z"></glyph>
      <glyph glyph-name="uni067E.fina" unicode="پ" d="M2249 189v-188h-30q-73 0 -138 21.5t-116 62.5q-6 5 -12 10.5t-12 11.5q-106 -105 -307 -106h-1135q-71 0 -133.5 24t-110.5 69q-20 18 -40 44t-36.5 61t-27 79.5t-10.5 100.5q0 50 10.5 110t23 114t24 93t14.5 48l180 -57q-7 -21 -17.5 -59.5t-21 -82.5t-18 -88.5 t-7.5 -77.5q0 -66 21 -104t49.5 -57t57.5 -24t44 -5h1126q73 0 116.5 15t66 38t29 50.5t6.5 52.5v347h189v-342q0 -57 24.5 -89.5t56.5 -48.5t62 -19.5t42 -3.5h30zM1092 -786l-144 143l140 139l142 -139zM1439 -351l-162 -162l-156 162l158 160zM1056 -353l-162 -162 l-156 162l158 160z"></glyph>
      <glyph glyph-name="uni067E.init" unicode="پ" d="M675 814q2 -6 8 -32t13.5 -64.5t16.5 -85t16 -94t12 -91.5t5 -77q0 -96 -31.5 -165.5t-82 -115t-113.5 -67.5t-127 -22h-414v189h414q15 0 42.5 4.5t55 22.5t48 54t20.5 100q0 22 -3.5 55.5t-9 72t-12.5 79t-14 76.5t-13 64t-10 42zM457 -789l-144 143l140 139l142 -139z M804 -354l-162 -162l-156 162l158 160zM421 -356l-162 -162l-156 162l158 160z"></glyph>
      <glyph glyph-name="uni067E.medi" unicode="پ" d="M1072 189v-189h-175q-91 0 -160.5 26t-111.5 78q-104 -104 -308 -104h-340v189h340q72 0 114 14.5t63.5 36t28 48t6.5 50.5v338h188v-331q0 -37 11.5 -63t28.5 -43.5t38.5 -27.5t41.5 -15t36 -6t24 -1h175zM486 -784l-144 143l140 139l142 -139zM833 -349l-162 -162 l-156 162l158 160zM450 -351l-162 -162l-156 162l158 160z"></glyph>
      <glyph glyph-name="uni062A" unicode="ت" d="M1698 185q37 0 69 13t55 36q43 46 43 125v11q-1 14 -3 34t-5 46q-3 25 -6.5 51.5t-8.5 56.5t-11 65t-14 79l183 31q9 -43 16 -79.5t12 -67.5q10 -63 16.5 -118.5t8.5 -88.5v-20q0 -40 -7 -78.5t-21 -73t-31.5 -60t-35.5 -43.5q-49 -52 -117 -80t-143 -28h-1254 q-70 1 -133 24.5t-111 68.5q-20 18 -40 44t-36.5 61t-26.5 80t-10 101q0 50 10 110t22.5 113.5t24 93t14.5 48.5l180 -57q-6 -21 -16.5 -59.5t-21 -82.5t-18 -88.5t-7.5 -77.5q0 -66 21 -104t49.5 -57t57 -24t43.5 -5h1252zM1263 766l-158 160l156 162l162 -162zM880 768 l-158 160l156 162l162 -162z"></glyph>
      <glyph glyph-name="uni062A.init" unicode="ت" d="M675 814q2 -6 8 -32t13.5 -64.5t16.5 -85t16 -94t12 -91.5t5 -77q0 -96 -31.5 -165.5t-82 -115t-113.5 -67.5t-127 -22h-414v189h414q15 0 42.5 4.5t55 22.5t48 54t20.5 100q0 22 -3.5 55.5t-9 72t-12.5 79t-14 76.5t-13 64t-10 42zM657 1026l-158 160l156 162l162 -162z M274 1028l-158 160l156 162l162 -162z"></glyph>
      <glyph glyph-name="uni062A.medi" unicode="ت" d="M1072 189v-189h-175q-91 0 -160.5 26t-111.5 78q-104 -104 -308 -104h-340v189h340q72 0 114 14.5t63.5 36t28 48t6.5 50.5v338h188v-331q0 -37 11.5 -63t28.5 -43.5t38.5 -27.5t41.5 -15t36 -6t24 -1h175zM748 920l-158 160l156 162l162 -162zM365 922l-158 160l156 162 l162 -162z"></glyph>
      <glyph glyph-name="uni062A.fina" unicode="ت" d="M2249 189v-188h-30q-73 0 -138 21.5t-116 62.5q-6 5 -12 10.5t-12 11.5q-106 -105 -307 -106h-1135q-71 0 -133.5 24t-110.5 69q-20 18 -40 44t-36.5 61t-27 79.5t-10.5 100.5q0 50 10.5 110t23 114t24 93t14.5 48l180 -57q-7 -21 -17.5 -59.5t-21 -82.5t-18 -88.5 t-7.5 -77.5q0 -66 21 -104t49.5 -57t57.5 -24t44 -5h1126q73 0 116.5 15t66 38t29 50.5t6.5 52.5v347h189v-342q0 -57 24.5 -89.5t56.5 -48.5t62 -19.5t42 -3.5h30zM1267 766l-158 160l156 162l162 -162zM884 768l-158 160l156 162l162 -162z"></glyph>
      <glyph glyph-name="uni062B" unicode="ث" d="M1698 185q37 0 69 13t55 36q43 46 43 125v11q-1 14 -3 34t-5 46q-3 25 -6.5 51.5t-8.5 56.5t-11 65t-14 79l183 31q9 -43 16 -79.5t12 -67.5q10 -63 16.5 -118.5t8.5 -88.5v-20q0 -40 -7 -78.5t-21 -73t-31.5 -60t-35.5 -43.5q-49 -52 -117 -80t-143 -28h-1254 q-70 1 -133 24.5t-111 68.5q-20 18 -40 44t-36.5 61t-26.5 80t-10 101q0 50 10 110t22.5 113.5t24 93t14.5 48.5l180 -57q-6 -21 -16.5 -59.5t-21 -82.5t-18 -88.5t-7.5 -77.5q0 -66 21 -104t49.5 -57t57 -24t43.5 -5h1252zM1225 1170l-142 -139l-140 139l144 143zM1274 718 l-158 160l156 162l162 -162zM891 720l-158 160l156 162l162 -162z"></glyph>
      <glyph glyph-name="uni062B.init" unicode="ث" d="M675 814q2 -6 8 -32t13.5 -64.5t16.5 -85t16 -94t12 -91.5t5 -77q0 -96 -31.5 -165.5t-82 -115t-113.5 -67.5t-127 -22h-414v189h414q15 0 42.5 4.5t55 22.5t48 54t20.5 100q0 22 -3.5 55.5t-9 72t-12.5 79t-14 76.5t-13 64t-10 42zM599 1446l-142 -139l-140 139l144 143 zM648 994l-158 160l156 162l162 -162zM265 996l-158 160l156 162l162 -162z"></glyph>
      <glyph glyph-name="uni062B.medi" unicode="ث" d="M1072 189v-189h-175q-91 0 -160.5 26t-111.5 78q-104 -104 -308 -104h-340v189h340q72 0 114 14.5t63.5 36t28 48t6.5 50.5v338h188v-331q0 -37 11.5 -63t28.5 -43.5t38.5 -27.5t41.5 -15t36 -6t24 -1h175zM658 1384l-142 -139l-140 139l144 143zM707 932l-158 160 l156 162l162 -162zM324 934l-158 160l156 162l162 -162z"></glyph>
      <glyph glyph-name="uni062B.fina" unicode="ث" d="M2249 189v-188h-30q-73 0 -138 21.5t-116 62.5q-6 5 -12 10.5t-12 11.5q-106 -105 -307 -106h-1135q-71 0 -133.5 24t-110.5 69q-20 18 -40 44t-36.5 61t-27 79.5t-10.5 100.5q0 50 10.5 110t23 114t24 93t14.5 48l180 -57q-7 -21 -17.5 -59.5t-21 -82.5t-18 -88.5 t-7.5 -77.5q0 -66 21 -104t49.5 -57t57.5 -24t44 -5h1126q73 0 116.5 15t66 38t29 50.5t6.5 52.5v347h189v-342q0 -57 24.5 -89.5t56.5 -48.5t62 -19.5t42 -3.5h30zM1235 1170l-142 -139l-140 139l144 143zM1284 718l-158 160l156 162l162 -162zM901 720l-158 160l156 162 l162 -162z"></glyph>
      <glyph glyph-name="uni0679" unicode="ٹ" d="M1698 185q37 0 69 13t55 36q43 46 43 125v11q-1 14 -3 34t-5 46q-3 25 -6.5 51.5t-8.5 56.5t-11 65t-14 79l183 31q9 -43 16 -79.5t12 -67.5q10 -63 16.5 -118.5t8.5 -88.5v-20q0 -40 -7 -78.5t-21 -73t-31.5 -60t-35.5 -43.5q-49 -52 -117 -80t-143 -28h-1254 q-70 1 -133 24.5t-111 68.5q-20 18 -40 44t-36.5 61t-26.5 80t-10 101q0 50 10 110t22.5 113.5t24 93t14.5 48.5l180 -57q-6 -21 -16.5 -59.5t-21 -82.5t-18 -88.5t-7.5 -77.5q0 -66 21 -104t49.5 -57t57 -24t43.5 -5h1252zM818 670v85h100l47 73v485h83v-363q38 46 84 77 t103 31q33 0 64.5 -12t56.5 -37.5t40.5 -64.5t15.5 -92q0 -51 -17 -85.5t-43 -56t-58.5 -31t-63.5 -9.5h-412zM1230 755q42 0 69 23t27 74q0 58 -23.5 89.5t-67.5 31.5q-32 0 -61 -20t-56 -51.5t-51.5 -69.5t-45.5 -74q-1 -1 -1 -3h210z"></glyph>
      <glyph glyph-name="uni0679.init" unicode="ٹ" d="M675 814q2 -6 8 -32t13.5 -64.5t16.5 -85t16 -94t12 -91.5t5 -77q0 -96 -31.5 -165.5t-82 -115t-113.5 -67.5t-127 -22h-414v189h414q15 0 42.5 4.5t55 22.5t48 54t20.5 100q0 22 -3.5 55.5t-9 72t-12.5 79t-14 76.5t-13 64t-10 42zM181 990v85h100l47 73v485h83v-363 q38 46 84 77t103 31q33 0 64.5 -12t56.5 -37.5t40.5 -64.5t15.5 -92q0 -51 -17 -85.5t-43 -56t-58.5 -31t-63.5 -9.5h-412zM593 1075q42 0 69 23t27 74q0 58 -23.5 89.5t-67.5 31.5q-32 0 -61 -20t-56 -51.5t-51.5 -69.5t-45.5 -74q-1 -1 -1 -3h210z"></glyph>
      <glyph glyph-name="uni0679.medi" unicode="ٹ" d="M1072 189v-189h-175q-91 0 -160.5 26t-111.5 78q-104 -104 -308 -104h-340v189h340q72 0 114 14.5t63.5 36t28 48t6.5 50.5v338h188v-331q0 -37 11.5 -63t28.5 -43.5t38.5 -27.5t41.5 -15t36 -6t24 -1h175zM146 856v85h100l47 73v485h83v-363q38 46 84 77t103 31 q33 0 64.5 -12t56.5 -37.5t40.5 -64.5t15.5 -92q0 -51 -17 -85.5t-43 -56t-58.5 -31t-63.5 -9.5h-412zM558 941q42 0 69 23t27 74q0 58 -23.5 89.5t-67.5 31.5q-32 0 -61 -20t-56 -51.5t-51.5 -69.5t-45.5 -74q-1 -1 -1 -3h210z"></glyph>
      <glyph glyph-name="uni0679.fina" unicode="ٹ" d="M2249 189v-188h-30q-73 0 -138 21.5t-116 62.5q-6 5 -12 10.5t-12 11.5q-106 -105 -307 -106h-1135q-71 0 -133.5 24t-110.5 69q-20 18 -40 44t-36.5 61t-27 79.5t-10.5 100.5q0 50 10.5 110t23 114t24 93t14.5 48l180 -57q-7 -21 -17.5 -59.5t-21 -82.5t-18 -88.5 t-7.5 -77.5q0 -66 21 -104t49.5 -57t57.5 -24t44 -5h1126q73 0 116.5 15t66 38t29 50.5t6.5 52.5v347h189v-342q0 -57 24.5 -89.5t56.5 -48.5t62 -19.5t42 -3.5h30zM840 680v85h100l47 73v485h83v-363q38 46 84 77t103 31q33 0 64.5 -12t56.5 -37.5t40.5 -64.5t15.5 -92 q0 -51 -17 -85.5t-43 -56t-58.5 -31t-63.5 -9.5h-412zM1252 765q42 0 69 23t27 74q0 58 -23.5 89.5t-67.5 31.5q-32 0 -61 -20t-56 -51.5t-51.5 -69.5t-45.5 -74q-1 -1 -1 -3h210z"></glyph>
      <glyph glyph-name="uni0629" unicode="ة" d="M525 0q-90 0 -165.5 27.5t-131 76t-86.5 115t-31 144.5q0 100 26.5 176.5t67.5 138t90 112.5t94 100l-62 69l140 127q52 -58 107.5 -116.5t108.5 -118t99.5 -119t81.5 -119t56 -118.5q19 -57 19 -112v-6q-1 -81 -32.5 -151.5t-91.5 -124.5q-56 -48 -130.5 -74.5 t-159.5 -26.5zM512 755q-38 -43 -76 -85.5t-68 -89.5t-49 -100t-19 -117q0 -45 19.5 -77.5t51 -54t72 -32t82.5 -10.5q51 0 92.5 13.5t71 38.5t45.5 59.5t16 76.5q0 50 -21 98.5t-54.5 95.5t-76.5 93t-86 91zM694 1214l-158 160l156 162l162 -162zM311 1216l-158 160 l156 162l162 -162z"></glyph>
      <glyph glyph-name="uni0629.fina" unicode="ة" d="M1265 0h-25q-160 0 -279.5 68.5t-183.5 191.5q-32 -44 -76.5 -76.5t-100.5 -57.5q-32 -13 -74 -21t-89 -8t-96.5 11t-96.5 37q-72 38 -115.5 100.5t-57.5 147.5q-7 39 -7 77q0 64 25.5 143t103.5 160q137 140 387 214l-19 108l184 39q24 -100 42 -177.5t32 -139.5 q3 -12 9.5 -40t15.5 -64.5t19 -78.5t20 -82t19 -75t16 -58q20 -75 59 -120.5t85 -70t93.5 -32t84.5 -7.5h25v-189zM630 805q-99 -29 -175 -69t-125.5 -88.5t-70.5 -104.5q-14 -37 -14 -76q0 -20 4 -41q7 -42 30 -70.5t54 -45.5q22 -13 48 -18.5t52 -5.5h10q21 0 43 3.5 t41 11.5q126 52 147 189q4 32 4 60q0 15 -3 42t-6 41zM840 1304l-158 160l156 162l162 -162zM457 1306l-158 160l156 162l162 -162z"></glyph>
      <glyph glyph-name="uni0686.init" unicode="چ" d="M1328 400q-6 -4 -52 -35t-122.5 -75.5t-178.5 -95.5t-219.5 -94t-245.5 -71.5t-256 -28.5h-274v189h274q112 0 226.5 26.5t220.5 66t199 86t163 87.5q-97 39 -193.5 76t-176.5 65.5t-137.5 46.5t-76.5 21q-17 0 -35.5 -3t-36.5 -18t-35 -46.5t-32 -88.5l-183 48 q77 296 324 296q6 0 16 -0.5t29 -5t51 -14t81.5 -26.5t120.5 -43.5t170 -65.5l354 -131zM685 -799l-144 143l140 139l142 -139zM1032 -364l-162 -162l-156 162l158 160zM649 -366l-162 -162l-156 162l158 160z"></glyph>
      <glyph glyph-name="uni0686.medi" unicode="چ" d="M1335 400q-6 -4 -50 -34t-117 -73q11 -37 35.5 -57.5t51.5 -31t51 -13t34 -2.5h210v-189h-210q-73 0 -136.5 21.5t-114.5 63.5q-58 49 -88 118q-77 -38 -165 -74.5t-182.5 -65t-194 -46t-198.5 -17.5h-281v189h281q112 0 226.5 26.5t220.5 66t199 86t163 87.5 q-97 39 -193.5 76t-176.5 65.5t-137.5 46.5t-76.5 21q-17 0 -35.5 -3t-36.5 -18t-35 -46.5t-32 -88.5l-183 48q77 296 324 296q7 0 16.5 -0.5t29 -5t50.5 -14t81 -26.5t121 -43.5t170 -65.5l354 -131zM694 -800l-144 143l140 139l142 -139zM1041 -365l-162 -162l-156 162 l158 160zM658 -367l-162 -162l-156 162l158 160z"></glyph>
      <glyph glyph-name="uni062C" unicode="ج" d="M1342 603q-2 -1 -31.5 -12.5t-99 -38t-186 -70t-293.5 -109.5q-108 -41 -185 -74.5t-128 -64t-79.5 -60t-41.5 -60t-14 -65.5v-10q0 -31 5 -66q13 -105 54 -171t104.5 -102.5t148.5 -50t186 -13.5h459v-189h-459q-46 0 -97.5 2.5t-105 11t-107.5 24.5t-105 43 q-226 122 -265 420q-6 44 -6 84q0 69 22.5 141.5t96.5 143.5q70 67 182.5 120.5t269.5 111.5l419 150q-97 39 -194 74t-178.5 61.5t-139.5 43t-77 19.5q-17 0 -35.5 -3t-36.5 -18t-35 -46.5t-32 -88.5l-183 48q77 296 324 296q7 0 16.5 -0.5t29 -5t50.5 -14t81 -26.5 t121 -43.5t170 -65.5l368 -150zM677 42l170 172l174 -174l-172 -172z"></glyph>
      <glyph glyph-name="uni062C.init" unicode="ج" d="M1328 400q-6 -4 -52 -35t-122.5 -75.5t-178.5 -95.5t-219.5 -94t-245.5 -71.5t-256 -28.5h-274v189h274q112 0 226.5 26.5t220.5 66t199 86t163 87.5q-97 39 -193.5 76t-176.5 65.5t-137.5 46.5t-76.5 21q-17 0 -35.5 -3t-36.5 -18t-35 -46.5t-32 -88.5l-183 48 q77 296 324 296q6 0 16 -0.5t29 -5t51 -14t81.5 -26.5t120.5 -43.5t170 -65.5l354 -131zM503 -358l170 172l174 -174l-172 -172z"></glyph>
      <glyph glyph-name="uni062C.medi" unicode="ج" d="M1335 400q-6 -4 -50 -34t-117 -73q11 -37 35.5 -57.5t51.5 -31t51 -13t34 -2.5h210v-189h-210q-73 0 -136.5 21.5t-114.5 63.5q-58 49 -88 118q-77 -38 -165 -74.5t-182.5 -65t-194 -46t-198.5 -17.5h-281v189h281q112 0 226.5 26.5t220.5 66t199 86t163 87.5 q-97 39 -193.5 76t-176.5 65.5t-137.5 46.5t-76.5 21q-17 0 -35.5 -3t-36.5 -18t-35 -46.5t-32 -88.5l-183 48q77 296 324 296q7 0 16.5 -0.5t29 -5t50.5 -14t81 -26.5t121 -43.5t170 -65.5l354 -131zM520 -358l170 172l174 -174l-172 -172z"></glyph>
      <glyph glyph-name="uni062C.fina" unicode="ج" d="M1342 397q-3 -1 -40.5 -16t-128.5 -49q12 -37 32 -64t43 -44.5t48 -26t47 -8.5h253v-189h-253q-74 0 -132 18.5t-101 52.5t-72 83t-44 110l-262 -97q-108 -40 -185 -74t-128 -64.5t-79.5 -60t-41.5 -60t-14 -65.5v-10q0 -31 5 -66q13 -105 54 -171t104.5 -102.5 t148.5 -50t186 -13.5h459v-189h-459q-46 0 -97.5 2.5t-105 11t-107.5 24.5t-105 43q-226 122 -265 420q-6 44 -6 84q0 69 22.5 141.5t96.5 143.5q70 67 182.5 120.5t269.5 111.5l427 152q-97 39 -195.5 73.5t-181 61t-142 42.5t-78.5 19q-17 0 -35.5 -3t-36.5 -18t-35 -46.5 t-32 -88.5l-183 48q77 296 324 296q7 0 16.5 -0.5t29 -5t50.5 -14t81 -26.5t121 -43.5t170 -65.5l368 -150zM660 -198l170 172l174 -174l-172 -172z"></glyph>
      <glyph glyph-name="uni062E" unicode="خ" d="M1342 603q-2 -1 -31.5 -12.5t-99 -38t-186 -70t-293.5 -109.5q-108 -41 -185 -74.5t-128 -64t-79.5 -60t-41.5 -60t-14 -65.5v-10q0 -31 5 -66q13 -105 54 -171t104.5 -102.5t148.5 -50t186 -13.5h459v-189h-459q-46 0 -97.5 2.5t-105 11t-107.5 24.5t-105 43 q-226 122 -265 420q-6 44 -6 84q0 69 22.5 141.5t96.5 143.5q70 67 182.5 120.5t269.5 111.5l419 150q-97 39 -194 74t-178.5 61.5t-139.5 43t-77 19.5q-17 0 -35.5 -3t-36.5 -18t-35 -46.5t-32 -88.5l-183 48q77 296 324 296q7 0 16.5 -0.5t29 -5t50.5 -14t81 -26.5 t121 -43.5t170 -65.5l368 -150zM332 1466l170 172l174 -174l-172 -172z"></glyph>
      <glyph glyph-name="uni062E.init" unicode="خ" d="M1328 400q-6 -4 -52 -35t-122.5 -75.5t-178.5 -95.5t-219.5 -94t-245.5 -71.5t-256 -28.5h-274v189h274q112 0 226.5 26.5t220.5 66t199 86t163 87.5q-97 39 -193.5 76t-176.5 65.5t-137.5 46.5t-76.5 21q-17 0 -35.5 -3t-36.5 -18t-35 -46.5t-32 -88.5l-183 48 q77 296 324 296q6 0 16 -0.5t29 -5t51 -14t81.5 -26.5t120.5 -43.5t170 -65.5l354 -131zM266 1261l170 172l174 -174l-172 -172z"></glyph>
      <glyph glyph-name="uni062E.medi" unicode="خ" d="M1335 400q-6 -4 -50 -34t-117 -73q11 -37 35.5 -57.5t51.5 -31t51 -13t34 -2.5h210v-189h-210q-73 0 -136.5 21.5t-114.5 63.5q-58 49 -88 118q-77 -38 -165 -74.5t-182.5 -65t-194 -46t-198.5 -17.5h-281v189h281q112 0 226.5 26.5t220.5 66t199 86t163 87.5 q-97 39 -193.5 76t-176.5 65.5t-137.5 46.5t-76.5 21q-17 0 -35.5 -3t-36.5 -18t-35 -46.5t-32 -88.5l-183 48q77 296 324 296q7 0 16.5 -0.5t29 -5t50.5 -14t81 -26.5t121 -43.5t170 -65.5l354 -131zM271 1261l170 172l174 -174l-172 -172z"></glyph>
      <glyph glyph-name="uni062E.fina" unicode="خ" d="M1342 397q-3 -1 -40.5 -16t-128.5 -49q12 -37 32 -64t43 -44.5t48 -26t47 -8.5h253v-189h-253q-74 0 -132 18.5t-101 52.5t-72 83t-44 110l-262 -97q-108 -40 -185 -74t-128 -64.5t-79.5 -60t-41.5 -60t-14 -65.5v-10q0 -31 5 -66q13 -105 54 -171t104.5 -102.5 t148.5 -50t186 -13.5h459v-189h-459q-46 0 -97.5 2.5t-105 11t-107.5 24.5t-105 43q-226 122 -265 420q-6 44 -6 84q0 69 22.5 141.5t96.5 143.5q70 67 182.5 120.5t269.5 111.5l427 152q-97 39 -195.5 73.5t-181 61t-142 42.5t-78.5 19q-17 0 -35.5 -3t-36.5 -18t-35 -46.5 t-32 -88.5l-183 48q77 296 324 296q7 0 16.5 -0.5t29 -5t50.5 -14t81 -26.5t121 -43.5t170 -65.5l368 -150zM343 1259l170 172l174 -174l-172 -172z"></glyph>
      <glyph glyph-name="uni0630" unicode="ذ" d="M543 -15q-51 0 -103 4.5t-101.5 14t-95 25t-82.5 37.5l-83 47l94 165l83 -47q35 -20 86 -32.5t108 -17.5q49 -5 98 -5q9 0 42 0.5t82 7.5q58 9 95.5 25.5t47.5 37.5q4 10 4 22q0 17 -10 47.5t-42 78.5l-362 547l160 104q13 -20 27 -41.5t33 -50t44 -67t61 -92.5l84 -126 l112 -168q25 -38 45 -79.5t30 -83.5q9 -38 9 -76q0 -4 -1 -27.5t-20 -64.5q-63 -141 -290 -174q-35 -5 -74 -8t-81 -3zM369 1414l170 172l174 -174l-172 -172z"></glyph>
      <glyph glyph-name="uni0630.fina" unicode="ذ" d="M1265 189v-189h-37q-149 0 -275 124q-75 -101 -263 -128q-35 -5 -74 -8t-81 -3q-51 0 -103 4.5t-101.5 14t-95.5 25t-83 36.5l-82 48l94 165l83 -48q35 -20 85.5 -32.5t107.5 -17.5q43 -4 86 -4q15 0 51 0.5t86 7.5q58 9 95.5 25.5t47.5 37.5q9 10 9 25q0 10 -7 32.5 t-31 59.5l-375 571l159 104l388 -592q30 -43 60.5 -88.5t64.5 -83t71.5 -62t82.5 -24.5h37zM378 1418l170 172l174 -174l-172 -172z"></glyph>
      <glyph glyph-name="uni0688" unicode="ڈ" d="M543 -15q-51 0 -103 4.5t-101.5 14t-95 25t-82.5 37.5l-83 47l94 165l83 -47q35 -20 86 -32.5t108 -17.5q49 -5 98 -5q9 0 42 0.5t82 7.5q58 9 95.5 25.5t47.5 37.5q4 10 4 22q0 17 -10 47.5t-42 78.5l-362 547l160 104q13 -20 27 -41.5t33 -50t44 -67t61 -92.5l84 -126 l112 -168q25 -38 45 -79.5t30 -83.5q9 -38 9 -76q0 -4 -1 -27.5t-20 -64.5q-63 -141 -290 -174q-35 -5 -74 -8t-81 -3zM196 1220v85h100l47 73v485h83v-363q38 46 84 77t103 31q33 0 64.5 -12t56.5 -37.5t40.5 -64.5t15.5 -92q0 -51 -17 -85.5t-43 -56t-58.5 -31t-63.5 -9.5 h-412zM608 1305q42 0 69 23t27 74q0 58 -23.5 89.5t-67.5 31.5q-32 0 -61 -20t-56 -51.5t-51.5 -69.5t-45.5 -74q-1 -1 -1 -3h210z"></glyph>
      <glyph glyph-name="uni0688.fina" unicode="ڈ" d="M1265 189v-189h-37q-149 0 -275 124q-75 -101 -263 -128q-35 -5 -74 -8t-81 -3q-51 0 -103 4.5t-101.5 14t-95.5 25t-83 36.5l-82 48l94 165l83 -48q35 -20 85.5 -32.5t107.5 -17.5q43 -4 86 -4q15 0 51 0.5t86 7.5q58 9 95.5 25.5t47.5 37.5q9 10 9 25q0 10 -7 32.5 t-31 59.5l-375 571l159 104l388 -592q30 -43 60.5 -88.5t64.5 -83t71.5 -62t82.5 -24.5h37zM286 1248v85h100l47 73v485h83v-363q38 46 84 77t103 31q33 0 64.5 -12t56.5 -37.5t40.5 -64.5t15.5 -92q0 -51 -17 -85.5t-43 -56t-58.5 -31t-63.5 -9.5h-412zM698 1333 q42 0 69 23t27 74q0 58 -23.5 89.5t-67.5 31.5q-32 0 -61 -20t-56 -51.5t-51.5 -69.5t-45.5 -74q-1 -1 -1 -3h210z"></glyph>
      <glyph glyph-name="uni0632" unicode="ز" d="M0 -555v189h138q103 0 178.5 24.5t125 75.5t73 130t23.5 188v624h189v-624q0 -143 -37.5 -255.5t-111.5 -190.5t-184.5 -119.5t-255.5 -41.5h-138zM453 1109l170 172l174 -174l-172 -172z"></glyph>
      <glyph glyph-name="uni0632.fina" unicode="ز" d="M947 0h-43q-96 0 -177 38q0 -140 -39 -250t-114 -186.5t-184.5 -116.5t-251.5 -40h-138v189h138q103 0 178.5 24.5t125 75.5t73 130t23.5 188v624h189v-331q0 -56 23.5 -87.5t54.5 -46.5t59.5 -18.5t39.5 -3.5h43v-189zM452 1081l170 172l174 -174l-172 -172z"></glyph>
      <glyph glyph-name="uni0691" unicode="ڑ" d="M0 -555v189h138q103 0 178.5 24.5t125 75.5t73 130t23.5 188v624h189v-624q0 -143 -37.5 -255.5t-111.5 -190.5t-184.5 -119.5t-255.5 -41.5h-138zM184 893v85h100l47 73v485h83v-363q38 46 84 77t103 31q33 0 64.5 -12t56.5 -37.5t40.5 -64.5t15.5 -92q0 -51 -17 -85.5 t-43 -56t-58.5 -31t-63.5 -9.5h-412zM596 978q42 0 69 23t27 74q0 58 -23.5 89.5t-67.5 31.5q-32 0 -61 -20t-56 -51.5t-51.5 -69.5t-45.5 -74q-1 -1 -1 -3h210z"></glyph>
      <glyph glyph-name="uni0691.fina" unicode="ڑ" d="M947 0h-43q-96 0 -177 38q0 -140 -39 -250t-114 -186.5t-184.5 -116.5t-251.5 -40h-138v189h138q103 0 178.5 24.5t125 75.5t73 130t23.5 188v624h189v-331q0 -56 23.5 -87.5t54.5 -46.5t59.5 -18.5t39.5 -3.5h43v-189zM263 887v85h100l47 73v485h83v-363q38 46 84 77 t103 31q33 0 64.5 -12t56.5 -37.5t40.5 -64.5t15.5 -92q0 -51 -17 -85.5t-43 -56t-58.5 -31t-63.5 -9.5h-412zM675 972q42 0 69 23t27 74q0 58 -23.5 89.5t-67.5 31.5q-32 0 -61 -20t-56 -51.5t-51.5 -69.5t-45.5 -74q-1 -1 -1 -3h210z"></glyph>
      <glyph glyph-name="uni0698" unicode="ژ" d="M0 -555v189h138q103 0 178.5 24.5t125 75.5t73 130t23.5 188v624h189v-624q0 -143 -37.5 -255.5t-111.5 -190.5t-184.5 -119.5t-255.5 -41.5h-138zM735 1361l-142 -139l-140 139l144 143zM784 909l-158 160l156 162l162 -162zM401 911l-158 160l156 162l162 -162z"></glyph>
      <glyph glyph-name="uni0698.fina" unicode="ژ" d="M947 0h-43q-96 0 -177 38q0 -140 -39 -250t-114 -186.5t-184.5 -116.5t-251.5 -40h-138v189h138q103 0 178.5 24.5t125 75.5t73 130t23.5 188v624h189v-331q0 -56 23.5 -87.5t54.5 -46.5t59.5 -18.5t39.5 -3.5h43v-189zM684 1365l-142 -139l-140 139l144 143zM733 913 l-158 160l156 162l162 -162zM350 915l-158 160l156 162l162 -162z"></glyph>
      <glyph glyph-name="uni0634" unicode="ش" d="M2285 0q-99 0 -173.5 29t-124.5 84q-27 -32 -60.5 -53.5t-69 -35t-72 -19t-70.5 -5.5q-125 0 -216 56v-84q0 -262 -140 -393t-419 -131h-235q-155 0 -281 67t-204 191q-54 85 -77 189q-19 81 -19 170q0 26 4.5 99t41.5 204t103 270l170 -83q-56 -116 -88.5 -223 t-40.5 -202q-3 -32 -3 -62q0 -61 13.5 -129t54.5 -132q52 -81 136 -125.5t190 -44.5h235q115 0 187.5 24t113 68t55 105.5t14.5 137.5v704h189v-195q0 -96 18.5 -153.5t49 -88.5t69 -41t79.5 -10q25 0 57 9t60 30.5t47.5 57.5t19.5 90v301h188v-311q2 -91 48.5 -134 t148.5 -43q17 1 44.5 7.5t53 26t44 56t18.5 97.5q0 22 -3.5 55t-8.5 70.5t-12 77t-13.5 74.5t-12.5 62.5t-10 41.5l180 55q2 -5 7.5 -30.5t13.5 -63t16.5 -83.5t15.5 -92.5t11.5 -90t4.5 -76.5q0 -95 -30.5 -164.5t-80 -116t-112 -70t-125.5 -24.5zM2099 1392l-142 -139 l-140 139l144 143zM2148 940l-158 160l156 162l162 -162zM1765 942l-158 160l156 162l162 -162z"></glyph>
      <glyph glyph-name="uni0634.init" unicode="ش" d="M760 2q-94 0 -167 27.5t-123 79.5q-52 -56 -121 -82.5t-139 -26.5h-230v189h230q15 0 43 4.5t55 23t47.5 55.5t20.5 101v303h189v-299q0 -97 45.5 -142t149.5 -45q15 0 42.5 5.5t55 24.5t48 56t20.5 101v299h188v-299q0 -97 47 -143t151 -46q16 0 43 6.5t53.5 26.5 t45.5 57t19 99q0 22 -3.5 55t-9 71t-12.5 77.5t-14 74t-13 62t-10 40.5l179 57q2 -6 8 -31.5t14 -63t16.5 -83.5t16 -92.5t12.5 -90t5 -76.5q0 -95 -31 -165.5t-80.5 -117t-112.5 -70t-126 -24.5q-96 0 -169.5 28.5t-124.5 82.5q-52 -55 -120.5 -82t-137.5 -27zM1171 1401 l-142 -139l-140 139l144 143zM1220 949l-158 160l156 162l162 -162zM837 951l-158 160l156 162l162 -162z"></glyph>
      <glyph glyph-name="uni0634.medi" unicode="ش" d="M1737 0q-96 0 -170 27.5t-124 82.5h-1l-15 -16q-49 -47 -111 -70.5t-133 -23.5q-187 0 -290 108q-50 -53 -115 -79.5t-132 -28.5h-13q-177 3 -276 104q-6 -8 -14 -14q-101 -90 -285 -90h-78v189h78q64 0 103.5 12t61.5 35.5t29.5 57t7.5 76.5v305h189v-300q0 -97 47 -141 t147 -45q18 1 44.5 7t51 25t42.5 54.5t18 94.5v305h188v-300q0 -97 46.5 -141.5t149.5 -44.5q29 0 58 9t52 30t38 54.5t17 82.5v310h189v-310q2 -92 51 -134t149 -42h61v-189h-61zM1029 1365l-142 -139l-140 139l144 143zM1078 913l-158 160l156 162l162 -162zM695 915 l-158 160l156 162l162 -162z"></glyph>
      <glyph glyph-name="uni0634.fina" unicode="ش" d="M2861 0q-99 0 -174.5 29t-125.5 84l-24 -23q-50 -42 -115 -66t-133 -24q-98 0 -172 29t-124 84l-24 -23q-50 -42 -115 -66t-133 -24q-125 0 -216 56v-84q0 -262 -140 -393t-419 -131h-235q-155 0 -281 67t-204 191q-54 85 -77 189q-18 81 -18 170q0 26 4 99t41 204 t103 270l170 -83q-56 -116 -88.5 -223t-40.5 -202q-2 -32 -2 -62q0 -61 13 -129t54 -132q52 -81 136 -125.5t190 -44.5h235q115 0 187.5 24t113 68t55 105.5t14.5 137.5v703h189v-194q0 -96 18.5 -153.5t49 -88.5t69 -41t79.5 -10q25 0 57 9t60 30.5t47.5 57.5t19.5 90v300 h188v-310q2 -91 48.5 -134t149.5 -43q25 0 56.5 9t59.5 30.5t47 57.5t19 90v300h188v-310q2 -91 49.5 -133.5t150.5 -42.5h79v-189h-79zM2138 1365l-142 -139l-140 139l144 143zM2187 913l-158 160l156 162l162 -162zM1804 915l-158 160l156 162l162 -162z"></glyph>
      <glyph glyph-name="uni0636" unicode="ض" d="M720 -550q-156 0 -282.5 67.5t-204.5 192.5q-54 85 -77 189q-19 80 -19 168q0 26 4.5 98.5t41 202t102.5 267.5l171 -81q-112 -232 -128 -423q-3 -31 -3 -61q0 -152 69 -261q50 -81 135 -125.5t191 -44.5h235q115 0 186.5 24.5t112 68.5t55 106.5t14.5 138.5v699h188 v-334q0 -54 23 -85t53 -46q12 19 23.5 39t25.5 40q38 63 80.5 130t89 130t98 119.5t109.5 98.5t122.5 66.5t137.5 24.5t143.5 -27t126 -83.5t89.5 -142.5t34 -204q0 -111 -36.5 -187.5t-94.5 -124.5t-129.5 -69t-141.5 -21h-573q-48 0 -94 10t-86 29v-62q0 -527 -556 -527 h-235zM2264 189q9 0 24 1t33.5 4.5t38.5 10.5t39 20q78 52 78 177q0 127 -53.5 197.5t-150.5 70.5q-46 0 -90.5 -21t-86.5 -56.5t-82 -83t-78 -101t-73 -110t-68 -109.5h469zM2087 1229l170 172l174 -174l-172 -172z"></glyph>
      <glyph glyph-name="uni0636.init" unicode="ض" d="M-20 0v189h173q70 0 112 14t64 35.5t29 47.5t7 51v338h188v-330q0 -56 23.5 -87t53.5 -46q12 19 23.5 38.5t23.5 39.5q39 64 81.5 130.5t89.5 130t98.5 119.5t109.5 97.5t123 66t138 24.5t143.5 -26.5t125.5 -82t88.5 -141.5t33.5 -205q0 -111 -36.5 -188t-94.5 -125 t-130 -69t-142 -21h-572q-72 0 -136 21.5t-113 61.5q-12 9 -23 20q-52 -51 -126.5 -76t-174.5 -27h-180zM1305 189q49 0 89 13.5t68.5 40.5t44 67t15.5 93q0 128 -55 197.5t-150 69.5q-70 0 -135.5 -45t-126 -115t-115.5 -155t-104 -166h469zM1125 1238l170 172l174 -174 l-172 -172z"></glyph>
      <glyph glyph-name="uni0636.medi" unicode="ض" d="M-21 0v189h173q70 0 112 14t64 35.5t29 47.5t7 51v339h188v-331q0 -56 23.5 -87t53.5 -46q12 19 23.5 38.5t23.5 39.5q39 64 81.5 130.5t89.5 130t98.5 119.5t109.5 97.5t123 66t138 24.5t143.5 -26.5t125.5 -82t88.5 -141.5t33.5 -205q0 -66 -13.5 -119t-36.5 -95h206 v-189h-1131q-72 0 -136 21.5t-113 61.5q-12 9 -23 20q-52 -51 -126.5 -76t-174.5 -27h-180zM1315 189q23 1 58.5 8t68.5 28q38 26 58.5 69.5t20.5 108.5q0 128 -55 197.5t-150 69.5q-47 0 -91 -20.5t-86.5 -55.5t-82.5 -82t-77.5 -100t-73 -109.5t-68.5 -109.5l-2 -4h480z M1142 1243l170 172l174 -174l-172 -172z"></glyph>
      <glyph glyph-name="uni0636.fina" unicode="ض" d="M729 -550q-156 0 -282.5 67.5t-204.5 192.5q-54 85 -77 189q-18 80 -18 168q0 26 4 98.5t40.5 202t102.5 267.5l171 -81q-112 -232 -128 -423q-2 -31 -2 -61q0 -152 68 -261q50 -81 135 -125.5t191 -44.5h235q115 0 186.5 24.5t112 68.5t55 106.5t14.5 138.5v699h188 v-334q0 -54 23 -85t53 -46q12 19 23.5 39t25.5 40q38 63 80.5 130t89 130t98 119.5t109.5 98.5t122.5 66.5t137.5 24.5t143.5 -27t126 -83.5t89.5 -142.5t34 -204q0 -66 -13.5 -118.5t-36.5 -94.5h208v-189h-1133q-48 0 -94 10t-86 29v-62q0 -527 -556 -527h-235zM2283 189 q96 5 149.5 58t53.5 155q0 127 -53.5 197.5t-150.5 70.5q-46 0 -90.5 -21t-86.5 -56.5t-82 -83t-78 -101t-73 -110t-68 -109.5h479zM2120 1243l170 172l174 -174l-172 -172z"></glyph>
      <glyph glyph-name="uni0638" unicode="ظ" d="M87 0v189h224q25 38 49 80t50 81v1077h188v-807q43 51 89.5 95.5t98 76.5t108 50.5t118.5 18.5q73 0 144 -27t126.5 -83t89.5 -142t34 -204q0 -75 -17 -134t-46.5 -104t-69 -76.5t-84.5 -52t-93.5 -29.5t-94.5 -9h-914zM1001 189q9 0 24.5 1t34.5 5t39.5 11t39.5 19 q40 26 59 70t19 110q0 127 -54 197.5t-151 70.5q-46 0 -90 -20.5t-86.5 -56t-82.5 -83t-77.5 -101t-72.5 -110t-67 -109.5q-2 -2 -2 -4h467zM869 1287l170 172l174 -174l-172 -172z"></glyph>
      <glyph glyph-name="uni0638.init" unicode="ظ" d="M-20 0v189h224q25 38 49 80t50 81v1077h188v-807q43 51 89.5 95.5t98 76.5t108 50.5t118.5 18.5q73 0 144 -27t126.5 -83t89.5 -142t34 -204q0 -75 -17 -134t-46.5 -104t-69 -76.5t-84.5 -52t-93.5 -29.5t-94.5 -9h-914zM894 189q9 0 24.5 1t34.5 5t39.5 11t39.5 19 q40 26 59 70t19 110q0 127 -54 197.5t-151 70.5q-46 0 -90 -20.5t-86.5 -56t-82.5 -83t-77.5 -101t-72.5 -110t-67 -109.5q-2 -2 -2 -4h467zM747 1282l170 172l174 -174l-172 -172z"></glyph>
      <glyph glyph-name="uni0638.medi" unicode="ظ" d="M1481 0h-1501v189h224q25 38 49 80t50 81v1077h188v-807q43 51 89.5 95.5t98 76.5t108 50.5t118.5 18.5q73 0 144 -27t126.5 -83t89.5 -142t34 -204q0 -67 -13.5 -120t-37.5 -96h233v-189zM894 189q46 0 85.5 13t68.5 39.5t45.5 67t16.5 96.5q0 127 -54 197.5t-151 70.5 q-46 0 -90 -20.5t-86.5 -56t-82.5 -83t-77.5 -101t-72.5 -110t-67 -109.5q-2 -2 -2 -4h467zM768 1283l170 172l174 -174l-172 -172z"></glyph>
      <glyph glyph-name="uni0638.fina" unicode="ظ" d="M1614 0h-1501v189h224q25 38 49 80t50 81v1077h188v-807q43 51 89.5 95t98 76t108 50.5t118.5 18.5q73 0 144 -27t126.5 -82.5t89.5 -141.5t34 -204q0 -67 -13.5 -120t-37.5 -96h233v-189zM1027 189q46 0 85.5 13t68.5 39.5t45.5 67t16.5 96.5q0 127 -54 197t-151 70 q-46 0 -90 -20.5t-86.5 -56t-82.5 -82.5t-77.5 -100.5t-72.5 -110t-67 -109.5q-2 -2 -2 -4h467zM889 1284l170 172l174 -174l-172 -172z"></glyph>
      <glyph glyph-name="uni063A" unicode="غ" d="M1193 -552h-465q-120 0 -235.5 33t-206.5 101.5t-146.5 173.5t-55.5 249q0 121 48 227t138 182q57 48 125 80.5t140 46.5q-39 39 -63 80.5t-37 79.5t-17.5 71.5t-4.5 57.5q0 82 33 154t88.5 126t129 85t154.5 31q55 0 104 -14t94.5 -36t89 -49t89.5 -53l-94 -163 q-35 20 -72 42.5t-73 41t-71 30.5t-67 12q-39 0 -78 -14.5t-69.5 -41.5t-50 -65t-19.5 -86q0 -15 3 -35t12.5 -43.5t26.5 -48t46 -47.5q66 -52 171 -79t245 -27h127v-189h-605q-36 0 -76 -9.5t-79.5 -29t-75.5 -48.5t-63 -68.5t-43.5 -89.5t-16.5 -111q0 -87 28.5 -148.5 t72.5 -102.5t98 -64.5t104.5 -35t91.5 -14.5t60 -3h465v-189zM661 1590l170 172l174 -174l-172 -172z"></glyph>
      <glyph glyph-name="uni063A.init" unicode="غ" d="M-21 0v189h342q-37 38 -59.5 77t-34.5 75t-16 67.5t-4 55.5q0 82 33 154.5t88.5 125.5t129 84t154.5 31q47 0 90 -10.5t87 -30t92.5 -48t107.5 -63.5l-94 -162q-35 21 -71.5 43.5t-73 40.5t-72 29.5t-66.5 11.5q-39 0 -77.5 -14t-70 -40.5t-51 -65t-19.5 -86.5 q0 -54 21.5 -95.5t58.5 -72t86.5 -51t106 -33t116 -18t117.5 -5.5h126v-189h-1047zM445 1264l170 172l174 -174l-172 -172z"></glyph>
      <glyph glyph-name="uni063A.medi" unicode="غ" d="M906 0q-17 0 -39 4.5t-52 17.5t-69 37t-91 63q-116 -63 -271 -92.5t-346 -29.5h-58v189h58q144 0 258 16.5t193 47.5q-52 44 -103.5 91t-94.5 88.5t-74.5 72t-42.5 42.5v40q0 19 2 41.5t8 46.5t18 48.5t32 47.5q76 85 242 85h331q83 0 150 -40.5t98 -111.5 q23 -46 22.5 -90.5t-17 -87t-45 -82t-62.5 -76t-69.5 -69.5t-65.5 -62q22 -15 38 -24.5t26.5 -14.5t16 -6.5t7.5 -2.5h366v-189h-366zM365 623q20 -19 56 -52.5t78.5 -72.5t86 -78t78.5 -68q54 43 103.5 91t99.5 111q11 14 19 33q3 7 3 15q0 12 -6 24q-8 15 -26 28t-50 13 h-331q-29 0 -47.5 -2.5t-30 -6.5t-17 -7.5t-7.5 -6.5q-3 -2 -5 -7.5t-4 -13.5zM483 1272l170 172l174 -174l-172 -172z"></glyph>
      <glyph glyph-name="uni063A.fina" unicode="غ" d="M1182 -761h-464q-43 0 -94.5 4t-106.5 15t-110.5 31t-107.5 53q-111 68 -167 175.5t-56 248.5q0 95 45 181.5t137 170.5q62 55 135.5 104t151.5 96q-50 49 -94.5 95t-79 82.5t-55 59t-22.5 25.5l-25 62q0 19 2 42t8 47t18 48t32 47q40 44 99.5 64.5t144.5 20.5h329 q83 0 148.5 -40t97.5 -109q23 -50 23 -102q0 -18 -7.5 -63.5t-59.5 -108.5q-48 -57 -111.5 -106t-134.5 -94q37 -31 63 -50t43 -29.5t26.5 -14.5t12.5 -5h374v-189h-376q-20 0 -46 6.5t-62.5 26t-86.5 56t-118 95.5q-80 -47 -156 -95.5t-135 -100t-95.5 -107t-36.5 -115.5 q0 -74 22 -127.5t58 -91t83.5 -61t97.5 -36.5t100 -17.5t92 -4.5h464v-189zM460 677q15 -17 38.5 -42.5t52.5 -55.5t62 -64t68 -68l32 -28q75 45 139.5 92.5t106.5 98.5q23 25 23 51q0 11 -4 22q-9 20 -29.5 30t-46.5 10h-329q-29 0 -48.5 -2.5t-31 -6.5t-17 -7.5t-7.5 -4.5 q-7 -11 -9 -25zM554 1296l170 172l174 -174l-172 -172z"></glyph>
      <glyph glyph-name="uni06A9.init" unicode="ک" d="M-23 0v189h586q72 0 119.5 16.5t61.5 45.5q7 15 7 34q0 17 -9.5 48.5t-40.5 83t-76 108.5t-97 114t-107 111.5t-106 101t-93 82t-69 54.5l19 213l915 402l76 -172l-801 -350q30 -30 77 -75.5t102 -101t112 -118t108 -125.5t90.5 -123.5t58.5 -111.5q17 -44 24 -82 q5 -33 5 -60q0 -5 -0.5 -23t-7 -43t-14.5 -43q-11 -25 -34 -55.5t-64.5 -57t-103.5 -44.5t-152 -18h-586z"></glyph>
      <glyph glyph-name="uni06A9.medi" unicode="ک" d="M1258 0h-15q-89 0 -158.5 17t-126.5 48.5t-105 76t-94 99.5q-2 -5 -4 -9t-4 -9q-28 -55 -78.5 -99t-119.5 -73q-59 -26 -131 -38.5t-150 -12.5h-294v189h294q58 0 108.5 8.5t91 24t69 37.5t42.5 49q13 27 13 61q0 27 -14 77.5t-77 135.5q-89 125 -151 212t-101 142 q-46 64 -75 105l37 140l918 424l78 -173l-819 -375l397 -551q61 -82 109 -141.5t97.5 -98.5t108 -58t139.5 -19h15v-189z"></glyph>
      <glyph glyph-name="uni0641" unicode="ف" d="M1620 897q-34 0 -66.5 -11.5t-58 -36t-41.5 -62t-16 -88.5q0 -38 9 -68t34.5 -51t70.5 -32t117 -11h152q-5 64 -12.5 128t-27 115.5t-57.5 84t-104 32.5zM1466 -3h-982q-70 1 -133 24.5t-111 68.5q-20 18 -40 44t-36 61.5t-26.5 80t-10.5 100.5q0 50 10 110t23 113.5 t24 93t14 48.5l180 -57l-17 -59.5t-21 -82.5t-17.5 -88.5t-7.5 -77.5q0 -66 21 -104t49.5 -57t57 -24t43.5 -5h980q75 0 129.5 7.5t93.5 19.5t63.5 28.5t39 34.5t20.5 36.5t8 35.5q-32 0 -71 0.5t-80 0.5q-75 0 -149.5 14t-134.5 53t-97.5 107t-37.5 176q0 81 27.5 151 t76.5 122.5t117 82.5t149 30q111 0 186 -48.5t120.5 -128t64.5 -181t19 -207.5v-137q0 -114 -45 -188.5t-120.5 -118.5t-174 -61.5t-204.5 -17.5zM1432 1470l170 172l174 -174l-172 -172z"></glyph>
      <glyph glyph-name="uni0641.init" unicode="ف" d="M-22 0v189h444q112 0 180.5 16t106.5 40t51.5 52.5t16.5 54.5h-152q-26 0 -58 2t-66.5 7.5t-69.5 16.5t-68 29q-27 16 -55 40t-50.5 59.5t-37 84t-14.5 113.5q0 81 28 153.5t80 124.5t119 79t143 27q87 0 160 -37t123 -106q54 -72 80 -178t26 -243v-138q0 -99 -39.5 -176 t-119.5 -125q-133 -85 -384 -85h-444zM576 899q-33 0 -67.5 -11.5t-62 -35t-45 -60.5t-17.5 -88q0 -33 7 -55.5t18 -37t23 -23.5t23 -15q29 -17 71 -24.5t99 -7.5h154q-2 99 -20.5 173t-50.5 121q-48 64 -132 64zM423 1488l170 172l174 -174l-172 -172z"></glyph>
      <glyph glyph-name="uni0641.medi" unicode="ف" d="M563 246q45 16 81 40t61.5 56t39.5 73t14 93q0 30 -15.5 60t-42 54t-60.5 39t-71 15q-42 0 -80.5 -13.5t-68 -36t-46.5 -53.5t-17 -65v-12q0 -43 13.5 -81.5t40.5 -70.5t65.5 -56.5t85.5 -41.5zM570 865q86 0 154 -30t115 -79.5t72 -114t25 -133.5q0 -97 -27.5 -175 t-83.5 -138q76 -6 164 -6h116v-189h-116q-256 0 -428 48q-88 -24 -202 -36t-260 -12h-119v189h119q109 0 195 6q-59 61 -88 139.5t-29 173.5q0 73 30.5 138t84 114t125 77t153.5 28zM394 1286l170 172l174 -174l-172 -172z"></glyph>
      <glyph glyph-name="uni0641.fina" unicode="ف" d="M1648 246q45 16 81 40t61.5 56t39.5 73t14 93q0 30 -15.5 60t-42 54t-60.5 39t-71 15q-42 0 -80.5 -13.5t-68 -36t-46.5 -53.5t-17 -65v-12q0 -43 13.5 -81.5t40.5 -70.5t65.5 -56.5t85.5 -41.5zM484 -3q-70 1 -133 24.5t-111 68.5q-20 18 -40 44t-36 61.5t-26.5 80 t-10.5 100.5q0 50 10 110t23 113.5t24 93t14 48.5l180 -57l-17 -59.5t-21 -82.5t-17.5 -88.5t-7.5 -77.5q0 -66 21 -104t49.5 -57t57 -24t43.5 -5l703 2q104 1 190 7q-59 61 -88 139.5t-29 173.5q0 73 30.5 138t84 114t125 77t153.5 28q86 0 154 -30t115 -79.5t72 -114 t25 -133.5q0 -97 -27.5 -175t-83.5 -138q76 -6 164 -6h76v-189h-76q-256 0 -428 48q-88 -24 -202 -36t-255 -13zM1472 1267l170 172l174 -174l-172 -172z"></glyph>
      <glyph glyph-name="veh.isol" unicode="ڤ" d="M1620 897q-34 0 -66.5 -11.5t-58 -36t-41.5 -62t-16 -88.5q0 -38 9 -68t34.5 -51t70.5 -32t117 -11h152q-5 64 -12.5 128t-27 115.5t-57.5 84t-104 32.5zM1466 -3h-982q-70 1 -133 24.5t-111 68.5q-20 18 -40 44t-36 61.5t-26.5 80t-10.5 100.5q0 50 10 110t23 113.5 t24 93t14 48.5l180 -57l-17 -59.5t-21 -82.5t-17.5 -88.5t-7.5 -77.5q0 -66 21 -104t49.5 -57t57 -24t43.5 -5h980q75 0 129.5 7.5t93.5 19.5t63.5 28.5t39 34.5t20.5 36.5t8 35.5q-32 0 -71 0.5t-80 0.5q-75 0 -149.5 14t-134.5 53t-97.5 107t-37.5 176q0 81 27.5 151 t76.5 122.5t117 82.5t149 30q111 0 186 -48.5t120.5 -128t64.5 -181t19 -207.5v-137q0 -114 -45 -188.5t-120.5 -118.5t-174 -61.5t-204.5 -17.5zM1750 1645l-142 -139l-140 139l144 143zM1799 1193l-158 160l156 162l162 -162zM1416 1195l-158 160l156 162l162 -162z"></glyph>
      <glyph glyph-name="veh.init" unicode="ڤ" d="M-22 0v189h444q112 0 180.5 16t106.5 40t51.5 52.5t16.5 54.5h-152q-26 0 -58 2t-66.5 7.5t-69.5 16.5t-68 29q-27 16 -55 40t-50.5 59.5t-37 84t-14.5 113.5q0 81 28 153.5t80 124.5t119 79t143 27q87 0 160 -37t123 -106q54 -72 80 -178t26 -243v-138q0 -99 -39.5 -176 t-119.5 -125q-133 -85 -384 -85h-444zM576 899q-33 0 -67.5 -11.5t-62 -35t-45 -60.5t-17.5 -88q0 -33 7 -55.5t18 -37t23 -23.5t23 -15q29 -17 71 -24.5t99 -7.5h154q-2 99 -20.5 173t-50.5 121q-48 64 -132 64zM723 1664l-142 -139l-140 139l144 143zM772 1212l-158 160 l156 162l162 -162zM389 1214l-158 160l156 162l162 -162z"></glyph>
      <glyph glyph-name="veh.medi" unicode="ڤ" d="M573 246q45 16 81 40t61.5 56t39.5 73t14 93q0 30 -15.5 60t-42 54t-60.5 39t-71 15q-42 0 -80.5 -13.5t-68 -36t-46.5 -53.5t-17 -65v-12q0 -43 13.5 -81.5t40.5 -70.5t65.5 -56.5t85.5 -41.5zM580 865q86 0 154 -30t115 -79.5t72 -114t25 -133.5q0 -97 -27.5 -175 t-83.5 -138q76 -6 164 -6h116v-189h-116q-256 0 -428 48q-88 -24 -202 -36t-260 -12h-119v189h119q109 0 195 6q-59 61 -88 139.5t-29 173.5q0 73 30.5 138t84 114t125 77t153.5 28zM720 1437l-142 -139l-140 139l144 143zM769 985l-158 160l156 162l162 -162zM386 987 l-158 160l156 162l162 -162z"></glyph>
      <glyph glyph-name="veh.fina" unicode="ڤ" d="M1648 246q45 16 81 40t61.5 56t39.5 73t14 93q0 30 -15.5 60t-42 54t-60.5 39t-71 15q-42 0 -80.5 -13.5t-68 -36t-46.5 -53.5t-17 -65v-12q0 -43 13.5 -81.5t40.5 -70.5t65.5 -56.5t85.5 -41.5zM484 -3q-70 1 -133 24.5t-111 68.5q-20 18 -40 44t-36 61.5t-26.5 80 t-10.5 100.5q0 50 10 110t23 113.5t24 93t14 48.5l180 -57l-17 -59.5t-21 -82.5t-17.5 -88.5t-7.5 -77.5q0 -66 21 -104t49.5 -57t57 -24t43.5 -5l703 2q104 1 190 7q-59 61 -88 139.5t-29 173.5q0 73 30.5 138t84 114t125 77t153.5 28q86 0 154 -30t115 -79.5t72 -114 t25 -133.5q0 -97 -27.5 -175t-83.5 -138q76 -6 164 -6h76v-189h-76q-256 0 -428 48q-88 -24 -202 -36t-255 -13zM1786 1440l-142 -139l-140 139l144 143zM1835 988l-158 160l156 162l162 -162zM1452 990l-158 160l156 162l162 -162z"></glyph>
      <glyph glyph-name="uni0642.init" unicode="ق" d="M-22 0v189h444q112 0 180.5 16t106.5 40t51.5 52.5t16.5 54.5h-152q-26 0 -58 2t-66.5 7.5t-69.5 16.5t-68 29q-27 16 -55 40t-50.5 59.5t-37 84t-14.5 113.5q0 81 28 153.5t80 124.5t119 79t143 27q87 0 160 -37t123 -106q54 -72 80 -178t26 -243v-138q0 -99 -39.5 -176 t-119.5 -125q-133 -85 -384 -85h-444zM576 899q-33 0 -67.5 -11.5t-62 -35t-45 -60.5t-17.5 -88q0 -33 7 -55.5t18 -37t23 -23.5t23 -15q29 -17 71 -24.5t99 -7.5h154q-2 99 -20.5 173t-50.5 121q-48 64 -132 64zM763 1270l-158 160l156 162l162 -162zM380 1272l-158 160 l156 162l162 -162z"></glyph>
      <glyph glyph-name="uni0642.medi" unicode="ق" d="M563 246q45 16 81 40t61.5 56t39.5 73t14 93q0 30 -15.5 60t-42 54t-60.5 39t-71 15q-42 0 -80.5 -13.5t-68 -36t-46.5 -53.5t-17 -65v-12q0 -43 13.5 -81.5t40.5 -70.5t65.5 -56.5t85.5 -41.5zM570 865q86 0 154 -30t115 -79.5t72 -114t25 -133.5q0 -97 -27.5 -175 t-83.5 -138q76 -6 164 -6h116v-189h-116q-256 0 -428 48q-88 -24 -202 -36t-260 -12h-119v189h119q109 0 195 6q-59 61 -88 139.5t-29 173.5q0 73 30.5 138t84 114t125 77t153.5 28zM736 1104l-158 160l156 162l162 -162zM353 1106l-158 160l156 162l162 -162z"></glyph>
      <glyph glyph-name="uni0642" unicode="ق" d="M794 -554h-100q-77 0 -148 17.5t-133.5 50.5t-114 81.5t-89.5 110.5q-54 85 -78 189q-19 80 -19 168q0 26 4 98.5t41 202t105 267.5l170 -81q-56 -116 -88.5 -222.5t-40.5 -201.5q-3 -32 -3 -62q0 -60 13.5 -127.5t54.5 -131.5q50 -81 135 -125.5t191 -44.5h90v2 q151 0 254 23t163 71q52 42 76.5 107t24.5 162h-184q-70 0 -142 21t-130.5 69t-95.5 125.5t-37 189.5q0 66 11.5 119.5t29 95.5t38.5 73t41 53q55 55 126 85t152 30q71 0 133 -22t111 -66q135 -126 135 -395v-378q0 -142 -41.5 -244.5t-128.5 -171.5t-214.5 -102t-311.5 -34 v-2zM1111 672q-99 0 -154 -70t-55 -197q0 -129 78 -179q19 -12 39 -19.5t39 -11t34.5 -5t25.5 -1.5h184v189q0 73 -11 123.5t-28 83.5t-38.5 50.5t-42.5 25.5t-40 9.5t-31 1.5zM1278 1070l-158 160l156 162l162 -162zM895 1072l-158 160l156 162l162 -162z"></glyph>
      <glyph glyph-name="uni0642.fina" unicode="ق" d="M794 -554h-100q-77 0 -148 17.5t-133.5 50.5t-114 81.5t-89.5 110.5q-54 85 -78 189q-19 80 -19 168q0 26 4 98.5t41 202t105 267.5l170 -81q-56 -116 -88.5 -222.5t-40.5 -201.5q-3 -32 -3 -62q0 -60 13.5 -127.5t54.5 -131.5q50 -81 135 -125.5t191 -44.5h90v2 q151 0 254 23t163 71q52 42 76.5 107t24.5 162h-184q-70 0 -142 21t-130.5 69t-95.5 125.5t-37 189.5q0 66 11.5 119.5t29 95.5t38.5 73t41 53q55 55 126 85t152 30q71 0 133 -22t111 -66q135 -126 135 -395v-189h187v-189h-187q0 -142 -41.5 -244.5t-128.5 -171.5 t-214.5 -102t-311.5 -34v-2zM1111 672q-99 0 -154 -70t-55 -197q0 -129 78 -179q19 -12 39 -19.5t39 -11t34.5 -5t25.5 -1.5h184v189q0 73 -11 123.5t-28 83.5t-38.5 50.5t-42.5 25.5t-40 9.5t-31 1.5zM1276 1067l-158 160l156 162l162 -162zM893 1069l-158 160l156 162 l162 -162z"></glyph>
      <glyph glyph-name="uni0646.init" unicode="ن" d="M518 814q2 -6 8 -32t13.5 -64.5t16.5 -85t16 -94t12 -91.5t5 -77q0 -96 -31.5 -165.5t-82 -115t-113.5 -67.5t-127 -22h-255v189h255q15 0 42.5 4.5t55 22.5t48 54t20.5 100q0 22 -3.5 55.5t-9 72t-12.5 79t-14 76.5t-13 64t-10 42zM188 1227l170 172l174 -174l-172 -172 z"></glyph>
      <glyph glyph-name="uni0646.medi" unicode="ن" d="M830 189v-189h-78q-91 0 -160.5 26t-111.5 78q-104 -104 -308 -104h-192v189h192q72 0 114 14.5t63.5 36t28 48t6.5 50.5v338h188v-331q0 -37 11 -63t28.5 -43.5t39 -27.5t41.5 -15t36 -6t24 -1h78zM235 1137l170 172l174 -174l-172 -172z"></glyph>
      <glyph glyph-name="uni0646" unicode="ن" d="M682 -554q-155 0 -281 67.5t-204 192.5q-54 85 -77 189q-19 80 -19 168q0 26 4.5 98.5t41.5 202t103 267.5l170 -81q-56 -116 -88.5 -222.5t-40.5 -201.5q-3 -32 -3 -62q0 -60 13.5 -127.5t54.5 -131.5q52 -81 136 -125.5t190 -44.5h235q115 0 187.5 24.5t113 68.5 t55 106.5t14.5 138.5v703h189v-703q0 -264 -140 -395.5t-419 -131.5h-235zM690 755l170 172l174 -174l-172 -172z"></glyph>
      <glyph glyph-name="uni0646.fina" unicode="ن" d="M681 -554q-155 0 -281 67.5t-204 192.5q-54 85 -77 189q-18 80 -18 168q0 26 4 98.5t41 202t103 267.5l170 -81q-56 -116 -88.5 -222.5t-40.5 -201.5q-2 -32 -2 -62q0 -60 13 -127.5t54 -131.5q52 -81 136 -125.5t190 -44.5h235q115 0 187.5 24.5t113 68.5t55 106.5 t14.5 138.5v703h189v-311q1 -40 14.5 -72.5t36.5 -55.5t55.5 -35.5t72.5 -12.5h39v-189h-39q-98 0 -179 43v-70q0 -264 -140 -395.5t-419 -131.5h-235zM689 751l170 172l174 -174l-172 -172z"></glyph>
      <glyph glyph-name="uni06C0" unicode="ۀ" d="M525 0q-90 0 -165.5 27.5t-131 76t-86.5 115t-31 144.5q0 100 26.5 176.5t67.5 138t90 112.5t94 100l-62 69l140 127q52 -58 107.5 -116.5t108.5 -118t99.5 -119t81.5 -119t56 -118.5q19 -57 19 -112v-6q-1 -81 -32.5 -151.5t-91.5 -124.5q-56 -48 -130.5 -74.5 t-159.5 -26.5zM512 755q-38 -43 -76 -85.5t-68 -89.5t-49 -100t-19 -117q0 -45 19.5 -77.5t51 -54t72 -32t82.5 -10.5q51 0 92.5 13.5t71 38.5t45.5 59.5t16 76.5q0 50 -21 98.5t-54.5 95.5t-76.5 93t-86 91zM572 1771q43 0 92 -13l-29 -109q-33 9 -62 9q-53 0 -87 -28 q-37 -32 -46 -90q57 -9 90 -15t53 -11q17 -4 28 -8.5t19 -9.5q30 -21 30 -58q0 -9 -0.5 -23.5t-3.5 -31.5t-10 -36.5t-20 -37.5q-59 -85 -204 -85h-110v113h110q36 0 59.5 6t37 16t19.5 22.5t8 25.5q-25 5 -69 12.5t-103 17.5l-43 7l-4 44q-1 12 -1 24q0 56 20.5 110.5 t67.5 93.5q24 21 62.5 38t95.5 17z"></glyph>
      <glyph glyph-name="uni06C0.fina" unicode="ۀ" d="M1275 0h-25q-160 0 -279.5 68.5t-183.5 191.5q-32 -44 -76.5 -76.5t-100.5 -57.5q-32 -13 -74 -21t-89 -8t-96.5 11t-96.5 37q-72 38 -115.5 100.5t-57.5 147.5q-7 39 -7 77q0 64 25.5 143t103.5 160q137 140 387 214l-19 108l184 39q24 -100 42 -177.5t32 -139.5 q3 -12 9.5 -40t15.5 -64.5t19 -78.5t20 -82t19 -75t16 -58q20 -75 59 -120.5t85 -70t93.5 -32t84.5 -7.5h25v-189zM640 805q-99 -29 -175 -69t-125.5 -88.5t-70.5 -104.5q-14 -37 -14 -76q0 -20 4 -41q7 -42 30 -70.5t54 -45.5q22 -13 48 -18.5t52 -5.5h10q21 0 43 3.5 t41 11.5q126 52 147 189q4 32 4 60q0 15 -3 42t-6 41zM708 1819q43 0 92 -13l-29 -109q-33 9 -62 9q-53 0 -87 -28q-37 -32 -46 -90q57 -9 90 -15t53 -11q17 -4 28 -8.5t19 -9.5q30 -21 30 -58q0 -9 -0.5 -23.5t-3.5 -31.5t-10 -36.5t-20 -37.5q-59 -85 -204 -85h-110v113 h110q36 0 59.5 6t37 16t19.5 22.5t8 25.5q-25 5 -69 12.5t-103 17.5l-43 7l-4 44q-1 12 -1 24q0 56 20.5 110.5t67.5 93.5q24 21 62.5 38t95.5 17z"></glyph>
      <glyph glyph-name="uni0624" unicode="ؤ" d="M193 -363q151 0 254 23t163 71q52 42 76.5 107t24.5 162h-184q-70 0 -142 21t-130.5 69t-95.5 125.5t-37 189.5q0 66 11.5 119.5t29 95.5t38.5 73t41 53q55 55 126 85t152 30q71 0 133 -22t111 -66q135 -126 135 -395v-378q0 -142 -41.5 -244.5t-128.5 -171.5 q-88 -69 -218.5 -102.5t-317.5 -33.5v189zM520 672q-99 0 -154 -70t-55 -197q0 -129 78 -179q19 -12 39 -19.5t39 -11t34.5 -5t25.5 -1.5h184v189q0 73 -11 123.5t-28 83.5t-38.5 50.5t-42.5 25.5t-40 9.5t-31 1.5zM183 1016l9 127l124 37q-54 43 -74 104q-9 27 -9 54 q0 12 3.5 38.5t23 61t51 60t69.5 36.5q27 9 54 9.5t52.5 -3t48.5 -11t43 -14.5l-25 -101q-17 4 -36 8t-38 6.5t-36 2t-28 -4.5q-17 -6 -31.5 -16.5t-24 -24t-12.5 -30.5q-1 -6 -1 -12q0 -12 4 -25q6 -20 22.5 -36.5t44.5 -25.5t67 -9t92 14l85 25l34 -108z"></glyph>
      <glyph glyph-name="uni0624.fina" unicode="ؤ" d="M204 -363q151 0 254 23t163 71q52 42 76.5 107t24.5 162h-184q-70 0 -142 21t-130.5 69t-95.5 125.5t-37 189.5q0 66 11.5 119.5t29 95.5t38.5 73t41 53q55 55 126 85t152 30q71 0 133 -22t111 -66q135 -126 135 -395v-189h150v-189h-150q0 -142 -41.5 -244.5 t-128.5 -171.5q-88 -69 -218.5 -102.5t-317.5 -33.5v189zM521 672q-99 0 -154 -70t-55 -197q0 -129 78 -179q19 -12 39 -19.5t39 -11t34.5 -5t25.5 -1.5h184v189q0 73 -11 123.5t-28 83.5t-38.5 50.5t-42.5 25.5t-40 9.5t-31 1.5zM182 1014l9 127l124 37q-54 43 -74 104 q-9 27 -9 54q0 12 3.5 38.5t23 61t51 60t69.5 36.5q27 9 54 9.5t52.5 -3t48.5 -11t43 -14.5l-25 -101q-17 4 -36 8t-38 6.5t-36 2t-28 -4.5q-17 -6 -31.5 -16.5t-24 -24t-12.5 -30.5q-1 -6 -1 -12q0 -12 4 -25q6 -20 22.5 -36.5t44.5 -25.5t67 -9t92 14l85 25l34 -108z"></glyph>
      <glyph glyph-name="uni0649.init" unicode="ى" d="M518 814q2 -6 8 -32t13.5 -64.5t16.5 -85t16 -94t12 -91.5t5 -77q0 -96 -31.5 -165.5t-82 -115t-113.5 -67.5t-127 -22h-255v189h255q15 0 42.5 4.5t55 22.5t48 54t20.5 100q0 22 -3.5 55.5t-9 72t-12.5 79t-14 76.5t-13 64t-10 42z"></glyph>
      <glyph glyph-name="uni0649.medi" unicode="ى" d="M830 189v-189h-78q-91 0 -160.5 26t-111.5 78q-104 -104 -308 -104h-192v189h192q72 0 114 14.5t63.5 36t28 48t6.5 50.5v338h188v-331q0 -37 11 -63t28.5 -43.5t39 -27.5t41.5 -15t36 -6t24 -1h78z"></glyph>
      <glyph glyph-name="uni064A.init" unicode="ي" d="M675 814q2 -6 8 -32t13.5 -64.5t16.5 -85t16 -94t12 -91.5t5 -77q0 -96 -31.5 -165.5t-82 -115t-113.5 -67.5t-127 -22h-414v189h414q15 0 42.5 4.5t55 22.5t48 54t20.5 100q0 22 -3.5 55.5t-9 72t-12.5 79t-14 76.5t-13 64t-10 42zM770 -388l-162 -162l-156 162l158 160 zM387 -390l-162 -162l-156 162l158 160z"></glyph>
      <glyph glyph-name="uni064A.medi" unicode="ي" d="M1072 189v-189h-175q-91 0 -160.5 26t-111.5 78q-104 -104 -308 -104h-340v189h340q72 0 114 14.5t63.5 36t28 48t6.5 50.5v338h188v-331q0 -37 11.5 -63t28.5 -43.5t38.5 -27.5t41.5 -15t36 -6t24 -1h175zM808 -392l-162 -162l-156 162l158 160zM425 -394l-162 -162 l-156 162l158 160z"></glyph>
      <glyph glyph-name="uni064A" unicode="ي" d="M933 -361q100 0 173.5 17.5t121.5 55.5t71 99t23 148q-96 25 -188 50q-39 10 -82 21.5t-85.5 23t-83 21.5t-74.5 19q-44 107 -44 211q0 6 1.5 64t42.5 153t116 170.5t173 120.5t214 55q23 2 47 2q94 0 193 -29l-47 -181q-68 21 -138 20.5t-134.5 -20t-119.5 -56.5 t-93.5 -88.5t-55.5 -115.5q-12 -42 -12 -87q0 -26 4 -52l383 -95q80 -22 120 -72t40 -122q0 -131 -31 -229.5t-99 -163.5t-175.5 -98t-260.5 -33h-221q-76 0 -147 19t-134 53t-116 82t-93 106q-47 76 -71 167t-24 192q0 125 39.5 269.5t115.5 305.5q45 -21 84 -40.5 t82 -40.5q-132 -282 -132 -489q0 -74 18 -141t50 -121q51 -80 138 -125.5t190 -45.5h221zM1192 -810l-162 -162l-156 162l158 160zM809 -812l-162 -162l-156 162l158 160z"></glyph>
      <glyph glyph-name="uni064A.fina" unicode="ي" d="M1514 0q42 -82 46 -155l1 -14q0 -65 -26 -123t-81 -107t-130 -82.5t-167 -52t-194 -18.5h-285q-158 0 -284 69t-206 191q-54 86 -77 191q-18 81 -18 170q0 26 4 98.5t41.5 203.5t105.5 271l168 -82q-112 -236 -127 -427q-2 -32 -2 -62q0 -152 67 -261q51 -83 136.5 -127 t191.5 -44h285q56 0 110 8.5t101 23.5t85 35.5t63.5 45.5t35.5 54q6 15 6 30q0 14 -5 28q-12 39 -56 65.5t-106 42t-134 22t-139 6.5l7 189h862v-189h-279zM1206 -844l-162 -162l-156 162l158 160zM823 -846l-162 -162l-156 162l158 160z"></glyph>
      <glyph glyph-name="uni06CC" unicode="ی" d="M933 -361q100 0 173.5 17.5t121.5 55.5t71 99t23 148q-96 25 -188 50q-39 10 -82 21.5t-85.5 23t-83 21.5t-74.5 19q-44 107 -44 211q0 6 1.5 64t42.5 153t116 170.5t173 120.5t214 55q23 2 47 2q94 0 193 -29l-47 -181q-68 21 -138 20.5t-134.5 -20t-119.5 -56.5 t-93.5 -88.5t-55.5 -115.5q-12 -42 -12 -87q0 -26 4 -52l383 -95q80 -22 120 -72t40 -122q0 -131 -31 -229.5t-99 -163.5t-175.5 -98t-260.5 -33h-221q-76 0 -147 19t-134 53t-116 82t-93 106q-47 76 -71 167t-24 192q0 125 39.5 269.5t115.5 305.5q45 -21 84 -40.5 t82 -40.5q-132 -282 -132 -489q0 -74 18 -141t50 -121q51 -80 138 -125.5t190 -45.5h221z"></glyph>
      <glyph glyph-name="uni06CC.init" unicode="ی" d="M675 814q2 -6 8 -32t13.5 -64.5t16.5 -85t16 -94t12 -91.5t5 -77q0 -96 -31.5 -165.5t-82 -115t-113.5 -67.5t-127 -22h-414v189h414q15 0 42.5 4.5t55 22.5t48 54t20.5 100q0 22 -3.5 55.5t-9 72t-12.5 79t-14 76.5t-13 64t-10 42zM759 -381l-162 -162l-156 162l158 160 zM376 -383l-162 -162l-156 162l158 160z"></glyph>
      <glyph glyph-name="uni06CC.medi" unicode="ی" d="M1072 189v-189h-175q-91 0 -160.5 26t-111.5 78q-104 -104 -308 -104h-340v189h340q72 0 114 14.5t63.5 36t28 48t6.5 50.5v338h188v-331q0 -37 11.5 -63t28.5 -43.5t38.5 -27.5t41.5 -15t36 -6t24 -1h175zM796 -387l-162 -162l-156 162l158 160zM413 -389l-162 -162 l-156 162l158 160z"></glyph>
      <glyph glyph-name="uni06CC.fina" unicode="ی" d="M1514 0q42 -82 46 -155l1 -14q0 -65 -26 -123t-81 -107t-130 -82.5t-167 -52t-194 -18.5h-285q-158 0 -284 69t-206 191q-54 86 -77 191q-18 81 -18 170q0 26 4 98.5t41.5 203.5t105.5 271l168 -82q-112 -236 -127 -427q-2 -32 -2 -62q0 -152 67 -261q51 -83 136.5 -127 t191.5 -44h285q56 0 110 8.5t101 23.5t85 35.5t63.5 45.5t35.5 54q6 15 6 30q0 14 -5 28q-12 39 -56 65.5t-106 42t-134 22t-139 6.5l7 189h862v-189h-279z"></glyph>
      <glyph glyph-name="uni06D3" unicode="ۓ" d="M1634 -364v-188h-1145q-84 0 -156 26.5t-125 76t-83 120t-30 157.5q0 76 32.5 142t87.5 115t126 76.5t148 27.5h403v-189h-395q-43 0 -83.5 -13.5t-72 -38t-50.5 -58.5t-19 -74t19 -73t49.5 -57t69.5 -37t79 -13h1145zM183 322l9 127l124 37q-54 43 -74 104q-9 27 -9 54 q0 12 3.5 38.5t23 61t51 60t69.5 36.5q27 9 54 9.5t52.5 -3t48.5 -11t43 -14.5l-25 -101q-17 4 -36 8t-38 6.5t-36 2t-28 -4.5q-17 -6 -31.5 -16.5t-24 -24t-12.5 -30.5q-1 -6 -1 -12q0 -12 4 -25q6 -20 22.5 -36.5t44.5 -25.5t67 -9t92 14l85 25l34 -108z"></glyph>
      <glyph glyph-name="uni06D3.fina" unicode="ۓ" d="M1288 -364v-188h-799q-84 0 -156 26.5t-125 76t-83 120t-30 157.5q0 76 32.5 142t87.5 115t126 76.5t148 27.5h840v-189h-832q-43 0 -83.5 -13.5t-72 -38t-50.5 -58.5t-19 -74t19 -73t49.5 -57t69.5 -37t79 -13h799zM185 294l9 127l124 37q-54 43 -74 104q-9 27 -9 54 q0 12 3.5 38.5t23 61t51 60t69.5 36.5q27 9 54 9.5t52.5 -3t48.5 -11t43 -14.5l-25 -101q-17 4 -36 8t-38 6.5t-36 2t-28 -4.5q-17 -6 -31.5 -16.5t-24 -24t-12.5 -30.5q-1 -6 -1 -12q0 -12 4 -25q6 -20 22.5 -36.5t44.5 -25.5t67 -9t92 14l85 25l34 -108z"></glyph>
      <glyph glyph-name="uni0626" unicode="ئ" d="M933 -361q100 0 173.5 17.5t121.5 55.5t71 99t23 148q-96 25 -188 50q-39 10 -82 21.5t-85.5 23t-83 21.5t-74.5 19q-44 107 -44 211q0 6 1.5 64t42.5 153t116 170.5t173 120.5t214 55q23 2 47 2q94 0 193 -29l-47 -181q-68 21 -138 20.5t-134.5 -20t-119.5 -56.5 t-93.5 -88.5t-55.5 -115.5q-12 -42 -12 -87q0 -26 4 -52l383 -95q80 -22 120 -72t40 -122q0 -131 -31 -229.5t-99 -163.5t-175.5 -98t-260.5 -33h-221q-76 0 -147 19t-134 53t-116 82t-93 106q-47 76 -71 167t-24 192q0 125 39.5 269.5t115.5 305.5q45 -21 84 -40.5 t82 -40.5q-132 -282 -132 -489q0 -74 18 -141t50 -121q51 -80 138 -125.5t190 -45.5h221zM110 757l9 127l124 37q-54 43 -74 104q-9 27 -9 54q0 12 3.5 38.5t23 61t51 60t69.5 36.5q27 9 54 9.5t52.5 -3t48.5 -11t43 -14.5l-25 -101q-17 4 -36 8t-38 6.5t-36 2t-28 -4.5 q-17 -6 -31.5 -16.5t-24 -24t-12.5 -30.5q-1 -6 -1 -12q0 -12 4 -25q6 -20 22.5 -36.5t44.5 -25.5t67 -9t92 14l85 25l34 -108z"></glyph>
      <glyph glyph-name="uni0626.init" unicode="ئ" d="M675 814q2 -6 8 -32t13.5 -64.5t16.5 -85t16 -94t12 -91.5t5 -77q0 -96 -31.5 -165.5t-82 -115t-113.5 -67.5t-127 -22h-414v189h414q15 0 42.5 4.5t55 22.5t48 54t20.5 100q0 22 -3.5 55.5t-9 72t-12.5 79t-14 76.5t-13 64t-10 42zM131 861l9 127l124 37q-54 43 -74 104 q-9 27 -9 54q0 12 3.5 38.5t23 61t51 60t69.5 36.5q27 9 54 9.5t52.5 -3t48.5 -11t43 -14.5l-25 -101q-17 4 -36 8t-38 6.5t-36 2t-28 -4.5q-17 -6 -31.5 -16.5t-24 -24t-12.5 -30.5q-1 -6 -1 -12q0 -12 4 -25q6 -20 22.5 -36.5t44.5 -25.5t67 -9t92 14l85 25l34 -108z"></glyph>
      <glyph glyph-name="uni0626.medi" unicode="ئ" d="M1072 189v-189h-175q-91 0 -160.5 26t-111.5 78q-104 -104 -308 -104h-340v189h340q72 0 114 14.5t63.5 36t28 48t6.5 50.5v338h188v-331q0 -37 11.5 -63t28.5 -43.5t38.5 -27.5t41.5 -15t36 -6t24 -1h175zM194 804l9 127l124 37q-54 43 -74 104q-9 27 -9 54 q0 12 3.5 38.5t23 61t51 60t69.5 36.5q27 9 54 9.5t52.5 -3t48.5 -11t43 -14.5l-25 -101q-17 4 -36 8t-38 6.5t-36 2t-28 -4.5q-17 -6 -31.5 -16.5t-24 -24t-12.5 -30.5q-1 -6 -1 -12q0 -12 4 -25q6 -20 22.5 -36.5t44.5 -25.5t67 -9t92 14l85 25l34 -108z"></glyph>
      <glyph glyph-name="uni0626.fina" unicode="ئ" d="M1514 0q42 -82 46 -155l1 -14q0 -65 -26 -123t-81 -107t-130 -82.5t-167 -52t-194 -18.5h-285q-158 0 -284 69t-206 191q-54 86 -77 191q-18 81 -18 170q0 26 4 98.5t41.5 203.5t105.5 271l168 -82q-112 -236 -127 -427q-2 -32 -2 -62q0 -152 67 -261q51 -83 136.5 -127 t191.5 -44h285q56 0 110 8.5t101 23.5t85 35.5t63.5 45.5t35.5 54q6 15 6 30q0 14 -5 28q-12 39 -56 65.5t-106 42t-134 22t-139 6.5l7 189h862v-189h-279zM689 319l9 127l124 37q-54 43 -74 104q-9 27 -9 54q0 12 3.5 38.5t23 61t51 60t69.5 36.5q27 9 54 9.5t52.5 -3 t48.5 -11t43 -14.5l-25 -101q-17 4 -36 8t-38 6.5t-36 2t-28 -4.5q-17 -6 -31.5 -16.5t-24 -24t-12.5 -30.5q-1 -6 -1 -12q0 -12 4 -25q6 -20 22.5 -36.5t44.5 -25.5t67 -9t92 14l85 25l34 -108z"></glyph>
      <glyph glyph-name="uni06C2.fina" unicode="ۂ" d="M1302 0h-58q-29 0 -63.5 3t-72.5 12t-78 24t-80 39q-78 49 -130.5 122t-76.5 168q-17 66 -33 128t-32 125.5t-32.5 131.5t-35.5 146l-120 -25q-105 -27 -143 -94q-29 -49 -31 -118v-26q0 -57 11 -127t32.5 -149t42.5 -148l28 -92l-182 -51q-7 21 -13 43.5t-14 46.5 q-25 85 -50 179.5t-36 188.5q-7 54 -7 106q0 39 6.5 102.5t49.5 138.5q81 140 262 182q20 5 55.5 13t70.5 15.5t61.5 12.5t28.5 5l111 -72q22 -96 41.5 -176.5t37.5 -153t36 -141.5t37 -143t58 -118.5t85 -68.5t93 -32t83 -8h58v-189zM150 1146l9 127l124 37q-54 43 -74 104 q-9 27 -9 54q0 12 3.5 38.5t23 61t51 60t69.5 36.5q27 9 54 9.5t52.5 -3t48.5 -11t43 -14.5l-25 -101q-17 4 -36 8t-38 6.5t-36 2t-28 -4.5q-17 -6 -31.5 -16.5t-24 -24t-12.5 -30.5q-1 -6 -1 -12q0 -12 4 -25q6 -20 22.5 -36.5t44.5 -25.5t67 -9t92 14l85 25l34 -108z"></glyph>
      <glyph glyph-name="uni06C1" unicode="ہ" d="M525 0q-90 0 -165.5 27.5t-131 76t-86.5 115t-31 144.5q0 100 26.5 176.5t67.5 138t90 112.5t94 100l-62 69l140 127q52 -58 107.5 -116.5t108.5 -118t99.5 -119t81.5 -119t56 -118.5q19 -57 19 -112v-6q-1 -81 -32.5 -151.5t-91.5 -124.5q-56 -48 -130.5 -74.5 t-159.5 -26.5zM512 755q-38 -43 -76 -85.5t-68 -89.5t-49 -100t-19 -117q0 -45 19.5 -77.5t51 -54t72 -32t82.5 -10.5q51 0 92.5 13.5t71 38.5t45.5 59.5t16 76.5q0 50 -21 98.5t-54.5 95.5t-76.5 93t-86 91z"></glyph>
      <glyph glyph-name="uni06C3.fina" unicode="ۃ" d="M1302 0h-58q-29 0 -63.5 3t-72.5 12t-78 24t-80 39q-78 49 -130.5 122t-76.5 168q-17 66 -33 128t-32 125.5t-32.5 131.5t-35.5 146l-120 -25q-105 -27 -143 -94q-29 -49 -31 -118v-26q0 -57 11 -127t32.5 -149t42.5 -148l28 -92l-182 -51q-7 21 -13 43.5t-14 46.5 q-25 85 -50 179.5t-36 188.5q-7 54 -7 106q0 39 6.5 102.5t49.5 138.5q81 140 262 182q20 5 55.5 13t70.5 15.5t61.5 12.5t28.5 5l111 -72q22 -96 41.5 -176.5t37.5 -153t36 -141.5t37 -143t58 -118.5t85 -68.5t93 -32t83 -8h58v-189zM668 1215l-158 160l156 162l162 -162z M285 1217l-158 160l156 162l162 -162z"></glyph>
      <glyph glyph-name="uni06BE.fina" unicode="ھ" d="M1004 1117q110 -115 203 -215q40 -43 80 -86.5t74.5 -83t61 -72t39.5 -52.5q27 -44 44.5 -85t24.5 -83q4 -25 4 -51q0 -17 -3 -48t-18 -82q-11 -38 -28 -70h279v-189h-624v1h-6q-33 0 -79.5 6t-95.5 16.5t-96.5 26t-83.5 34.5q-47 -15 -116 -29.5t-148 -26.5 t-161.5 -19.5t-154.5 -7.5l38 189l308 36q-42 26 -75 65.5t-56 87t-35.5 98.5t-12.5 99q0 76 28 140.5t77.5 111.5t117 73.5t147.5 26.5q60 0 110 -17t91 -45.5t71.5 -66t51.5 -78t31.5 -82t10.5 -77.5q0 -103 -38.5 -185.5t-113.5 -145.5q42 -17 89.5 -28t94.5 -11 q61 0 113.5 24.5t84.5 90.5q14 28 14 60q0 15 -6.5 47t-38 86.5t-80.5 114t-107.5 121.5t-122 124.5t-124.5 124.5zM751 328q75 33 119 91.5t44 142.5q0 50 -19.5 84.5t-47.5 55.5t-58 30.5t-52 9.5q-41 0 -74.5 -12.5t-57.5 -34.5t-37 -52.5t-13 -66.5q0 -43 10.5 -76.5 t34 -62.5t60.5 -55t91 -54z"></glyph>
      <glyph glyph-name="uni06BE.init" unicode="ھ" d="M629 258q37 16 68.5 40t55 54.5t36.5 66.5t13 78q0 50 -21 84.5t-50 56t-60.5 31t-53.5 9.5q-41 0 -75.5 -12.5t-60 -34.5t-40 -53t-14.5 -67q0 -43 11.5 -77.5t36 -64t62.5 -56.5t92 -55zM884 1052q110 -115 203 -215q40 -43 80 -86.5t74.5 -83t61 -72t39.5 -52.5 q27 -44 44.5 -85t24.5 -83q4 -25 4 -51q0 -17 -3 -48t-18 -82q-16 -58 -50.5 -105.5t-83.5 -81.5t-111 -52.5t-134 -18.5q-68 0 -141 18t-151 56q-22 9 -41 18q-17 8 -34.5 16t-28.5 14q-94 -29 -220 -43.5t-272 -14.5h-147v189h147q65 0 134.5 2t123.5 9q-72 63 -105 138.5 t-33 172.5q0 76 28 140.5t77.5 111.5t117 73.5t147.5 26.5q60 0 110 -17t91 -45.5t71.5 -66t51.5 -78t31.5 -82t10.5 -77.5q0 -103 -38.5 -185.5t-113.5 -145.5q42 -17 89.5 -28t94.5 -11q30 0 59.5 4t56 16t48.5 32.5t38 53.5q13 27 13 59q0 15 -6.5 48t-38.5 89t-81 116.5 t-108 123.5t-123 126t-125 125z"></glyph>
      <glyph glyph-name="uni06BE.medi" unicode="ھ" d="M406 223q33 5 65.5 13t63.5 17q99 30 153 65.5t79 68.5t29 60.5t4 42.5q0 92 -43 133.5t-137 41.5q-36 0 -71.5 -15t-64.5 -62t-50 -134t-28 -231zM620 853q86 0 154.5 -24.5t116 -71.5t72.5 -114.5t25 -152.5q0 -51 -16 -108.5t-60 -113.5t-122 -106.5t-202 -87.5 q-88 -29 -179 -42q13 -65 47.5 -124.5t83.5 -110t108.5 -89.5t123.5 -63q-24 27 -36.5 64t-16.5 78q-2 18 -2 36q0 22 4 54t16 65q22 56 58 101.5t83 78t102.5 50t115.5 17.5h184v-189h-184q-63 0 -111 -33.5t-70 -90.5q-14 -35 -14 -72q0 -33 18 -85.5t85 -111.5l-62 -166 q-97 0 -185 22.5t-164 62t-138.5 93.5t-110.5 117t-79 132.5t-43 140.5q-64 -5 -122.5 -7t-119.5 -2v189q52 0 110.5 2t124.5 7q5 128 20 223t42 170q30 81 71 132t87.5 80t94.5 39.5t90 10.5z"></glyph>
      <glyph glyph-name="fathatan_01" unicode="ﹰ" d="M-240 1702l480 178v-111l-480 -180v113zM-240 1933l480 178v-110l-480 -180v112z"></glyph>
      <glyph glyph-name="dammatan_01" unicode="ﹲ" d="M-271 1661q7 11 14.5 30t12 40.5t5 42.5t-6.5 35q-4 6 -13 14.5t-24 10.5q-13 0 -26.5 -3.5t-25.5 -9t-21.5 -11t-13.5 -8.5l-58 57q3 4 15 15t32 23t47 21q23 7 49 7h7q35 -2 62.5 -19t43.5 -47q19 -34 19.5 -75.5t-7.5 -80.5q54 16 113 39.5t104 54.5q-13 5 -27 9.5 t-39 16.5q-44 22 -67.5 51t-32.5 60q-6 21 -6 41q0 8 2 26.5t12 37.5q15 31 41 56.5t57.5 41t65.5 17.5h8q30 0 58 -13q62 -30 85 -104q7 -25 10 -52q1 -12 1 -25q0 -16 -3.5 -40.5t-16 -58.5t-35.5 -71q-20 -33 -55 -60t-76 -48.5t-84 -38t-79.5 -27.5t-63 -17t-33.5 -7z M71 2062q-11 0 -25 -4.5t-27.5 -12.5t-25.5 -19t-19 -23l-1 -10v-4q0 -9 3.5 -22.5t16 -30.5t40.5 -30q15 -9 36.5 -17t47.5 -17q3 14 6.5 32t5.5 38q1 13 1 26q0 6 -0.5 19t-5.5 31q-11 27 -35 41l-8 2t-10 1z"></glyph>
      <glyph glyph-name="kasratan_01" unicode="ﹴ" d="M-240 -680l480 178v-110l-480 -181v113zM-240 -449l480 179v-111l-480 -180v112z"></glyph>
      <glyph glyph-name="fatha_01" unicode="ﹶ" d="M-240 1702l480 178v-111l-480 -180v113z"></glyph>
      <glyph glyph-name="damma_01" unicode="ﹸ" d="M-292 1625q24 7 61.5 18t79.5 27.5t83.5 38t73.5 50.5q-22 11 -37.5 18t-31.5 15q-45 22 -69 50.5t-33 58.5q-8 23 -8 46q0 6 2 23.5t11 37.5q15 31 42 57t59 41.5t68 18.5h8q31 0 59 -14q65 -32 86 -104q7 -27 11 -56q2 -13 2 -27q0 -17 -4 -43t-20 -65t-48 -84 q-23 -33 -57 -59.5t-72.5 -48t-78 -37.5t-72.5 -27.5t-57 -18t-32 -8.5zM16 2031q-12 0 -26.5 -4t-28.5 -11.5t-25.5 -18t-18.5 -23.5q-1 0 -2 -9q-1 -3 -1 -6q0 -8 4 -20.5t17.5 -29.5t42.5 -32q15 -8 33.5 -16.5t52.5 -24.5q15 29 18 72q1 10 1 19q0 31 -8 58 q-8 19 -23 32.5t-36 13.5z"></glyph>
      <glyph glyph-name="kasra_01" unicode="ﹺ" d="M-240 -449l480 179v-111l-480 -180v112z"></glyph>
      <glyph glyph-name="shadda_01" unicode="ﹼ" d="M-130 1691q-87 0 -136 48t-49 134v106h91v-106q0 -48 22 -70t72 -22q7 0 20.5 2.5t26.5 12t23 28t10 49.5v106h92v-106q0 -48 22 -70.5t73 -22.5q7 0 20 3.5t26 13t22 28t9 48.5q0 15 -3.5 36t-8.5 42t-9.5 39t-7.5 27l85 29q1 -5 7 -23.5t12 -44t11 -53.5t5 -52 q0 -47 -15 -81.5t-39.5 -57t-55 -33.5t-60.5 -11q-92 0 -140 53q-25 -27 -58 -39.5t-67 -12.5z"></glyph>
      <glyph glyph-name="sukun_01" unicode="ﹾ" d="M-2 1671q-51 0 -92 15t-70.5 42.5t-45 67.5t-15.5 90q0 51 16 90.5t45 67.5t70 42.5t92 14.5q102 0 166 -59q63 -59 63 -154q0 -100 -63 -158q-64 -59 -166 -59zM-2 1774q49 0 81 29t32 83t-32 83.5t-81 29.5q-51 0 -82 -29.5t-31 -83.5q0 -112 113 -112z"></glyph>
      <glyph glyph-name="uni0651064C" unicode="ﱞ" d="M-130 1691q-87 0 -136 48t-49 134v106h91v-106q0 -48 22 -70t72 -22q7 0 20.5 2.5t26.5 12t23 28t10 49.5v106h92v-106q0 -48 22 -70.5t73 -22.5q7 0 20 3.5t26 13t22 28t9 48.5q0 15 -3.5 36t-8.5 42t-9.5 39t-7.5 27l85 29q1 -5 7 -23.5t12 -44t11 -53.5t5 -52 q0 -47 -15 -81.5t-39.5 -57t-55 -33.5t-60.5 -11q-92 0 -140 53q-25 -27 -58 -39.5t-67 -12.5zM-271 2200q7 11 14.5 30t12 40.5t5 42.5t-6.5 35q-4 6 -13 14.5t-24 10.5q-13 0 -26.5 -3.5t-25.5 -9t-21.5 -11t-13.5 -8.5l-58 57q3 4 15 15t32 23t47 21q23 7 49 7h7 q35 -2 62.5 -19t43.5 -47q19 -34 19.5 -75.5t-7.5 -80.5q54 16 113 39.5t104 54.5q-13 5 -27 9.5t-39 16.5q-44 22 -67.5 51t-32.5 60q-6 21 -6 41q0 8 2 26.5t12 37.5q15 31 41 56.5t57.5 41t65.5 17.5h8q30 0 58 -13q62 -30 85 -104q7 -25 10 -52q1 -12 1 -25 q0 -16 -3.5 -40.5t-16 -58.5t-35.5 -71q-20 -33 -55 -60t-76 -48.5t-84 -38t-79.5 -27.5t-63 -17t-33.5 -7zM71 2601q-11 0 -25 -4.5t-27.5 -12.5t-25.5 -19t-19 -23l-1 -10v-4q0 -9 3.5 -22.5t16 -30.5t40.5 -30q15 -9 36.5 -17t47.5 -17q3 14 6.5 32t5.5 38q1 13 1 26 q0 6 -0.5 19t-5.5 31q-11 27 -35 41l-8 2t-10 1z"></glyph>
      <glyph glyph-name="uni0651064D" unicode="ﱟ" d="M1 1753q-87 0 -136 48t-49 134v106h91v-106q0 -48 22 -70t72 -22q7 0 20.5 2.5t26.5 12t23 28t10 49.5v106h92v-106q0 -48 22 -70.5t73 -22.5q7 0 20 3.5t26 13t22 28t9 48.5q0 15 -3.5 36t-8.5 42t-9.5 39t-7.5 27l85 29q1 -5 7 -23.5t12 -44t11 -53.5t5 -52 q0 -47 -15 -81.5t-39.5 -57t-55 -33.5t-60.5 -11q-92 0 -140 53q-25 -27 -58 -39.5t-67 -12.5zM-117 1266l480 178v-110l-480 -181v113zM-117 1497l480 179v-111l-480 -180v112z"></glyph>
      <glyph glyph-name="uni0651064E" unicode="ﱠ" d="M-130 1691q-87 0 -136 48t-49 134v106h91v-106q0 -48 22 -70t72 -22q7 0 20.5 2.5t26.5 12t23 28t10 49.5v106h92v-106q0 -48 22 -70.5t73 -22.5q7 0 20 3.5t26 13t22 28t9 48.5q0 15 -3.5 36t-8.5 42t-9.5 39t-7.5 27l85 29q1 -5 7 -23.5t12 -44t11 -53.5t5 -52 q0 -47 -15 -81.5t-39.5 -57t-55 -33.5t-60.5 -11q-92 0 -140 53q-25 -27 -58 -39.5t-67 -12.5zM-332 2214l480 178v-111l-480 -180v113z"></glyph>
      <glyph glyph-name="uni0651064F" unicode="ﱡ" d="M-130 1691q-87 0 -136 48t-49 134v106h91v-106q0 -48 22 -70t72 -22q7 0 20.5 2.5t26.5 12t23 28t10 49.5v106h92v-106q0 -48 22 -70.5t73 -22.5q7 0 20 3.5t26 13t22 28t9 48.5q0 15 -3.5 36t-8.5 42t-9.5 39t-7.5 27l85 29q1 -5 7 -23.5t12 -44t11 -53.5t5 -52 q0 -47 -15 -81.5t-39.5 -57t-55 -33.5t-60.5 -11q-92 0 -140 53q-25 -27 -58 -39.5t-67 -12.5zM-292 2172q24 7 61.5 18t79.5 27.5t83.5 38t73.5 50.5q-22 11 -37.5 18t-31.5 15q-45 22 -69 50.5t-33 58.5q-8 23 -8 46q0 6 2 23.5t11 37.5q15 31 42 57t59 41.5t68 18.5h8 q31 0 59 -14q65 -32 86 -104q7 -27 11 -56q2 -13 2 -27q0 -17 -4 -43t-20 -65t-48 -84q-23 -33 -57 -59.5t-72.5 -48t-78 -37.5t-72.5 -27.5t-57 -18t-32 -8.5zM16 2578q-12 0 -26.5 -4t-28.5 -11.5t-25.5 -18t-18.5 -23.5q-1 0 -2 -9q-1 -3 -1 -6q0 -8 4 -20.5t17.5 -29.5 t42.5 -32q15 -8 33.5 -16.5t52.5 -24.5q15 29 18 72q1 10 1 19q0 31 -8 58q-8 19 -23 32.5t-36 13.5z"></glyph>
      <glyph glyph-name="uni06510650" unicode="ﱢ" d="M-16 1714q-87 0 -136 48t-49 134v106h91v-106q0 -48 22 -70t72 -22q7 0 20.5 2.5t26.5 12t23 28t10 49.5v106h92v-106q0 -48 22 -70.5t73 -22.5q7 0 20 3.5t26 13t22 28t9 48.5q0 15 -3.5 36t-8.5 42t-9.5 39t-7.5 27l85 29q1 -5 7 -23.5t12 -44t11 -53.5t5 -52 q0 -47 -15 -81.5t-39.5 -57t-55 -33.5t-60.5 -11q-92 0 -140 53q-25 -27 -58 -39.5t-67 -12.5zM-127 1454l480 179v-111l-480 -180v112z"></glyph>
      <glyph glyph-name="uniFC63" unicode="ﱣ" d="M-130 1691q-87 0 -136 48t-49 134v106h91v-106q0 -48 22 -70t72 -22q7 0 20.5 2.5t26.5 12t23 28t10 49.5v106h92v-106q0 -48 22 -70.5t73 -22.5q7 0 20 3.5t26 13t22 28t9 48.5q0 15 -3.5 36t-8.5 42t-9.5 39t-7.5 27l85 29q1 -5 7 -23.5t12 -44t11 -53.5t5 -52 q0 -47 -15 -81.5t-39.5 -57t-55 -33.5t-60.5 -11q-92 0 -140 53q-25 -27 -58 -39.5t-67 -12.5zM-59 2580h116v-397h-116v397z"></glyph>
      <glyph glyph-name="uni0692.fina" unicode="ڒ" d="M947 0h-43q-96 0 -177 38q0 -140 -39 -250t-114 -186.5t-184.5 -116.5t-251.5 -40h-138v189h138q103 0 178.5 24.5t125 75.5t73 130t23.5 188v624h189v-331q0 -56 23.5 -87.5t54.5 -46.5t59.5 -18.5t39.5 -3.5h43v-189zM905 1281l-225 -408h-127l-228 408h160l129 -264 l133 264h158z"></glyph>
      <glyph glyph-name="uni0695.fina" unicode="ڕ" d="M947 0h-43q-96 0 -177 38q0 -140 -39 -250t-114 -186.5t-184.5 -116.5t-251.5 -40h-138v189h138q103 0 178.5 24.5t125 75.5t73 130t23.5 188v624h189v-331q0 -56 23.5 -87.5t54.5 -46.5t59.5 -18.5t39.5 -3.5h43v-189zM653 -679l-225 -408h-127l-228 408h160l129 -264 l133 264h158z"></glyph>
      <glyph glyph-name="uni06A4.init" unicode="ڨ" d="M-22 0v189h444q112 0 180.5 16t106.5 40t51.5 52.5t16.5 54.5h-152q-26 0 -58 2t-66.5 7.5t-69.5 16.5t-68 29q-27 16 -55 40t-50.5 59.5t-37 84t-14.5 113.5q0 81 28 153.5t80 124.5t119 79t143 27q87 0 160 -37t123 -106q54 -72 80 -178t26 -243v-138q0 -99 -39.5 -176 t-119.5 -125q-133 -85 -384 -85h-444zM576 899q-33 0 -67.5 -11.5t-62 -35t-45 -60.5t-17.5 -88q0 -33 7 -55.5t18 -37t23 -23.5t23 -15q29 -17 71 -24.5t99 -7.5h154q-2 99 -20.5 173t-50.5 121q-48 64 -132 64zM710 1674l-142 -139l-140 139l144 143zM759 1222l-158 160 l156 162l162 -162zM376 1224l-158 160l156 162l162 -162z"></glyph>
      <glyph glyph-name="uni06A4.medi" unicode="ڨ" d="M563 246q45 16 81 40t61.5 56t39.5 73t14 93q0 30 -15.5 60t-42 54t-60.5 39t-71 15q-42 0 -80.5 -13.5t-68 -36t-46.5 -53.5t-17 -65v-12q0 -43 13.5 -81.5t40.5 -70.5t65.5 -56.5t85.5 -41.5zM570 865q86 0 154 -30t115 -79.5t72 -114t25 -133.5q0 -97 -27.5 -175 t-83.5 -138q76 -6 164 -6h116v-189h-116q-256 0 -428 48q-88 -24 -202 -36t-260 -12h-119v189h119q109 0 195 6q-59 61 -88 139.5t-29 173.5q0 73 30.5 138t84 114t125 77t153.5 28zM695 1468l-142 -139l-140 139l144 143zM744 1016l-158 160l156 162l162 -162zM361 1018 l-158 160l156 162l162 -162z"></glyph>
      <glyph glyph-name="uni06A8.fina" unicode="ڨ" d="M794 -554h-100q-77 0 -148 17.5t-133.5 50.5t-114 81.5t-89.5 110.5q-54 85 -78 189q-19 80 -19 168q0 26 4 98.5t41 202t105 267.5l170 -81q-56 -116 -88.5 -222.5t-40.5 -201.5q-3 -32 -3 -62q0 -60 13.5 -127.5t54.5 -131.5q50 -81 135 -125.5t191 -44.5h90v2 q151 0 254 23t163 71q52 42 76.5 107t24.5 162h-184q-70 0 -142 21t-130.5 69t-95.5 125.5t-37 189.5q0 66 11.5 119.5t29 95.5t38.5 73t41 53q55 55 126 85t152 30q71 0 133 -22t111 -66q135 -126 135 -395v-189h187v-189h-187q0 -142 -41.5 -244.5t-128.5 -171.5 t-214.5 -102t-311.5 -34v-2zM1111 672q-99 0 -154 -70t-55 -197q0 -129 78 -179q19 -12 39 -19.5t39 -11t34.5 -5t25.5 -1.5h184v189q0 73 -11 123.5t-28 83.5t-38.5 50.5t-42.5 25.5t-40 9.5t-31 1.5zM1253 1477l-142 -139l-140 139l144 143zM1302 1025l-158 160l156 162 l162 -162zM919 1027l-158 160l156 162l162 -162z"></glyph>
      <glyph glyph-name="uni06AA.init" unicode="ڪ" d="M1515 0h-1532v189h1435q-6 69 -25.5 123.5t-58.5 92.5t-101.5 58t-154.5 20q-168 0 -296 0.5t-223 3.5t-161.5 9.5t-111.5 17.5t-73 28t-46 42q-18 23 -24.5 47.5t-6.5 47.5q0 22 4.5 41t8.5 30q59 214 427 407q64 33 124 59t107 44t76 28.5t31 11.5l90 27l58 -179 l-90 -28q-1 -1 -27.5 -10t-70 -26t-99 -41.5t-114.5 -55.5q-143 -75 -228.5 -148.5t-104.5 -139.5v-2q17 -5 56.5 -10t113.5 -8q46 -3 103 -4t128 -2t157.5 -1h191.5q332 0 460 -226q27 -48 41 -99t21 -98.5t8 -87.5t1 -67z"></glyph>
      <glyph glyph-name="uni06AA.medi" unicode="ڪ" d="M-19 0v189h1404q36 0 52.5 9.5t19.5 25.5q1 5 1 10q0 13 -6.5 31t-18.5 42q-20 33 -55 65t-81 56.5t-101.5 39.5t-117.5 15q-169 0 -297 1t-223 4t-161.5 9.5t-111.5 17.5t-73 28t-47 41q-17 24 -23 49t-6 48q0 22 4 40.5t7 30.5q29 108 136.5 208.5t293.5 196.5 q64 34 123.5 60t106 44t75 28t30.5 11l90 29l60 -179l-90 -30q-1 0 -27.5 -9t-70 -25.5t-99.5 -41t-116 -55.5q-142 -75 -226.5 -148t-104.5 -139v-3q17 -5 56.5 -10t113.5 -8q46 -3 102.5 -4.5t127.5 -2.5t158 -1.5t192 -0.5q111 0 212.5 -37t180.5 -106q45 -41 79 -82.5 t63.5 -79t57 -70t61 -57t75 -38t99.5 -13.5h67v-189h-67q-53 0 -97.5 7t-82 21t-70 33.5t-62.5 45.5q-8 -13 -17.5 -23.5t-20.5 -19.5q-36 -31 -83.5 -47.5t-106.5 -16.5h-1385z"></glyph>
      <glyph glyph-name="uni06AA.fina" unicode="ڪ" d="M447 0q-65 0 -128 22t-113 67.5t-81 115t-31 165.5q0 49 10 108t22 112t23 91.5t14 47.5l179 -57q-6 -20 -16 -57t-19.5 -80.5t-16.5 -87.5t-7 -77q0 -63 20 -99.5t47 -54.5t54.5 -22.5t42.5 -4.5h1498q36 0 52.5 9.5t19.5 25.5q1 5 1 10q0 13 -6.5 31t-18.5 42 q-20 33 -55 65t-81 56.5t-101.5 39.5t-117.5 15q-169 0 -297 1t-223 4t-161.5 9.5t-111.5 17.5t-73 28t-47 41q-17 24 -23 49t-6 48q0 22 4 40.5t7 30.5q29 108 136.5 208.5t293.5 196.5q64 34 123.5 60t106 44t75 28t30.5 11l90 29l60 -179l-90 -30q-1 0 -27.5 -9 t-70 -25.5t-99.5 -41t-116 -55.5q-142 -75 -226.5 -148t-104.5 -139v-3q17 -5 56.5 -10t113.5 -8q46 -3 102.5 -4.5t127.5 -2.5t158 -1.5t192 -0.5q111 0 212.5 -37t180.5 -106q45 -41 79 -82.5t63.5 -79t57 -70t61 -57t75 -38t99.5 -13.5h67v-189h-67q-53 0 -97.5 7t-82 21 t-70 33.5t-62.5 45.5q-8 -13 -17.5 -23.5t-20.5 -19.5q-36 -31 -83.5 -47.5t-106.5 -16.5h-1479z"></glyph>
      <glyph glyph-name="uni06B5.init" unicode="ڵ" d="M-20 189h34q92 0 143.5 13.5t79.5 41.5q20 19 29.5 53.5t9.5 91.5v1039h188v-1039q0 -34 -3 -70.5t-13 -73.5t-29 -72.5t-51 -66.5q-29 -27 -62.5 -46.5t-76.5 -33t-96 -20t-119 -6.5h-34v189zM639 2022l-225 -408h-127l-228 408h160l129 -264l133 264h158z"></glyph>
      <glyph glyph-name="uni06B5.medi" unicode="ڵ" d="M-20 189h16q105 0 162.5 19.5t83.5 49t30.5 64.5t4.5 67v1038h188v-1038q0 -35 6.5 -70.5t26 -64.5t54.5 -47t93 -18h16v-189h-16q-77 0 -145.5 28t-129.5 90q-115 -118 -374 -118h-16v189zM653 2013l-225 -408h-127l-228 408h160l129 -264l133 264h158z"></glyph>
      <glyph glyph-name="uni06B5.fina" unicode="ڵ" d="M580 -552q-134 0 -243.5 58.5t-177.5 164.5q-27 43 -52 113t-29 169q-1 15 -1 31q0 87 24.5 205t101.5 278l170 -81q-47 -96 -73.5 -184t-32.5 -166q-2 -27 -2 -53q0 -48 10 -103t43 -108q42 -64 110.5 -99.5t151.5 -35.5h71q115 0 187 24t113 68t56 106.5t15 139.5v1452 h186v-1063q1 -40 14.5 -72t37.5 -55t56 -35.5t71 -12.5h33v-189h-33q-99 0 -179 44v-69q0 -527 -557 -527h-71zM1396 2013l-225 -408h-127l-228 408h160l129 -264l133 264h158z"></glyph>
      <glyph glyph-name="uni06A4.fina" unicode="ڤ" d="M1648 246q45 16 81 40t61.5 56t39.5 73t14 93q0 30 -15.5 60t-42 54t-60.5 39t-71 15q-42 0 -80.5 -13.5t-68 -36t-46.5 -53.5t-17 -65v-12q0 -43 13.5 -81.5t40.5 -70.5t65.5 -56.5t85.5 -41.5zM484 -3q-70 1 -133 24.5t-111 68.5q-20 18 -40 44t-36 61.5t-26.5 80 t-10.5 100.5q0 50 10 110t23 113.5t24 93t14 48.5l180 -57l-17 -59.5t-21 -82.5t-17.5 -88.5t-7.5 -77.5q0 -66 21 -104t49.5 -57t57 -24t43.5 -5l703 2q104 1 190 7q-59 61 -88 139.5t-29 173.5q0 73 30.5 138t84 114t125 77t153.5 28q86 0 154 -30t115 -79.5t72 -114 t25 -133.5q0 -97 -27.5 -175t-83.5 -138q76 -6 164 -6h76v-189h-76q-256 0 -428 48q-88 -24 -202 -36t-255 -13zM1786 1442l-142 -139l-140 139l144 143zM1835 990l-158 160l156 162l162 -162zM1452 992l-158 160l156 162l162 -162z"></glyph>
      <glyph glyph-name="uni06C6.fina" unicode="ۆ" d="M204 -363q151 0 254 23t163 71q52 42 76.5 107t24.5 162h-184q-70 0 -142 21t-130.5 69t-95.5 125.5t-37 189.5q0 66 11.5 119.5t29 95.5t38.5 73t41 53q55 55 126 85t152 30q71 0 133 -22t111 -66q135 -126 135 -395v-189h150v-189h-150q0 -142 -41.5 -244.5 t-128.5 -171.5q-88 -69 -218.5 -102.5t-317.5 -33.5v189zM521 672q-99 0 -154 -70t-55 -197q0 -129 78 -179q19 -12 39 -19.5t39 -11t34.5 -5t25.5 -1.5h184v189q0 73 -11 123.5t-28 83.5t-38.5 50.5t-42.5 25.5t-40 9.5t-31 1.5zM823 1473l-225 -408h-127l-228 408h160 l129 -264l133 264h158z"></glyph>
      <glyph glyph-name="uni06CE.init" unicode="ێ" d="M675 814q2 -6 8 -32t13.5 -64.5t16.5 -85t16 -94t12 -91.5t5 -77q0 -96 -31.5 -165.5t-82 -115t-113.5 -67.5t-127 -22h-414v189h414q15 0 42.5 4.5t55 22.5t48 54t20.5 100q0 22 -3.5 55.5t-9 72t-12.5 79t-14 76.5t-13 64t-10 42zM751 -334l-162 -162l-156 162l158 160 zM368 -336l-162 -162l-156 162l158 160zM660 1437l-225 -408h-127l-228 408h160l129 -264l133 264h158z"></glyph>
      <glyph glyph-name="uni06CE.medi" unicode="ێ" d="M1072 189v-189h-175q-91 0 -160.5 26t-111.5 78q-104 -104 -308 -104h-340v189h340q72 0 114 14.5t63.5 36t28 48t6.5 50.5v338h188v-331q0 -37 11.5 -63t28.5 -43.5t38.5 -27.5t41.5 -15t36 -6t24 -1h175zM848 -326l-162 -162l-156 162l158 160zM465 -328l-162 -162 l-156 162l158 160zM933 1269l-225 -408h-127l-228 408h160l129 -264l133 264h158z"></glyph>
      <glyph glyph-name="uni06CE.fina" unicode="ێ" d="M1514 0q42 -82 46 -155l1 -14q0 -65 -26 -123t-81 -107t-130 -82.5t-167 -52t-194 -18.5h-285q-158 0 -284 69t-206 191q-54 86 -77 191q-18 81 -18 170q0 26 4 98.5t41.5 203.5t105.5 271l168 -82q-112 -236 -127 -427q-2 -32 -2 -62q0 -152 67 -261q51 -83 136.5 -127 t191.5 -44h285q56 0 110 8.5t101 23.5t85 35.5t63.5 45.5t35.5 54q6 15 6 30q0 14 -5 28q-12 39 -56 65.5t-106 42t-134 22t-139 6.5l7 189h862v-189h-279zM1163 822l-225 -408h-127l-228 408h160l129 -264l133 264h158z"></glyph>
      <glyph glyph-name=".notdef" d="M102 -362v1806h1024v-1806h-1024zM217 -248h795v1577h-795v-1577z"></glyph>
      <glyph glyph-name="NULL" unicode="﻿"></glyph>
      <glyph glyph-name="NULL"></glyph>
      <glyph glyph-name="nonmarkingreturn"></glyph>
      <glyph glyph-name="space" unicode=" "></glyph>
      <glyph glyph-name="space" unicode=" "></glyph>
      <glyph glyph-name="uni0640" unicode="ـ" d="M418 189q11 0 11 -8v-171q0 -10 -11 -10h-428q-10 0 -10 10v171q0 8 10 8h428z"></glyph>
      <glyph glyph-name="uni066E" unicode="ٮ" d="M1698 185q37 0 69 13t55 36q43 46 43 125v11q-1 14 -3 34t-5 46q-3 25 -6.5 51.5t-8.5 56.5t-11 65t-14 79l183 31q9 -43 16 -79.5t12 -67.5q10 -63 16.5 -118.5t8.5 -88.5v-20q0 -40 -7 -78.5t-21 -73t-31.5 -60t-35.5 -43.5q-49 -52 -117 -80t-143 -28h-1254 q-70 1 -133 24.5t-111 68.5q-20 18 -40 44t-36.5 61t-26.5 80t-10 101q0 50 10 110t22.5 113.5t24 93t14.5 48.5l180 -57q-6 -21 -16.5 -59.5t-21 -82.5t-18 -88.5t-7.5 -77.5q0 -66 21 -104t49.5 -57t57 -24t43.5 -5h1252z"></glyph>
      <glyph glyph-name="feh_dotless.isol" d="M1620 897q-34 0 -66.5 -11.5t-58 -36t-41.5 -62t-16 -88.5q0 -38 9 -68t34.5 -51t70.5 -32t117 -11h152q-5 64 -12.5 128t-27 115.5t-57.5 84t-104 32.5zM1466 -3h-982q-70 1 -133 24.5t-111 68.5q-20 18 -40 44t-36 61.5t-26.5 80t-10.5 100.5q0 50 10 110t23 113.5 t24 93t14 48.5l180 -57l-17 -59.5t-21 -82.5t-17.5 -88.5t-7.5 -77.5q0 -66 21 -104t49.5 -57t57 -24t43.5 -5h980q75 0 129.5 7.5t93.5 19.5t63.5 28.5t39 34.5t20.5 36.5t8 35.5q-32 0 -71 0.5t-80 0.5q-75 0 -149.5 14t-134.5 53t-97.5 107t-37.5 176q0 81 27.5 151 t76.5 122.5t117 82.5t149 30q111 0 186 -48.5t120.5 -128t64.5 -181t19 -207.5v-137q0 -114 -45 -188.5t-120.5 -118.5t-174 -61.5t-204.5 -17.5z"></glyph>
      <glyph glyph-name="uni06A1.fina" d="M1648 246q45 16 81 40t61.5 56t39.5 73t14 93q0 30 -15.5 60t-42 54t-60.5 39t-71 15q-42 0 -80.5 -13.5t-68 -36t-46.5 -53.5t-17 -65v-12q0 -43 13.5 -81.5t40.5 -70.5t65.5 -56.5t85.5 -41.5zM484 -3q-70 1 -133 24.5t-111 68.5q-20 18 -40 44t-36 61.5t-26.5 80 t-10.5 100.5q0 50 10 110t23 113.5t24 93t14 48.5l180 -57l-17 -59.5t-21 -82.5t-17.5 -88.5t-7.5 -77.5q0 -66 21 -104t49.5 -57t57 -24t43.5 -5l703 2q104 1 190 7q-59 61 -88 139.5t-29 173.5q0 73 30.5 138t84 114t125 77t153.5 28q86 0 154 -30t115 -79.5t72 -114 t25 -133.5q0 -97 -27.5 -175t-83.5 -138q76 -6 164 -6h76v-189h-76q-256 0 -428 48q-88 -24 -202 -36t-255 -13z"></glyph>
      <glyph glyph-name="uni066F" unicode="ٯ" d="M794 -554h-100q-77 0 -148 17.5t-133.5 50.5t-114 81.5t-89.5 110.5q-54 85 -78 189q-19 80 -19 168q0 26 4 98.5t41 202t105 267.5l170 -81q-56 -116 -88.5 -222.5t-40.5 -201.5q-3 -32 -3 -62q0 -60 13.5 -127.5t54.5 -131.5q50 -81 135 -125.5t191 -44.5h90v2 q151 0 254 23t163 71q52 42 76.5 107t24.5 162h-184q-70 0 -142 21t-130.5 69t-95.5 125.5t-37 189.5q0 66 11.5 119.5t29 95.5t38.5 73t41 53q55 55 126 85t152 30q71 0 133 -22t111 -66q135 -126 135 -395v-378q0 -142 -41.5 -244.5t-128.5 -171.5t-214.5 -102t-311.5 -34 v-2zM1111 672q-99 0 -154 -70t-55 -197q0 -129 78 -179q19 -12 39 -19.5t39 -11t34.5 -5t25.5 -1.5h184v189q0 73 -11 123.5t-28 83.5t-38.5 50.5t-42.5 25.5t-40 9.5t-31 1.5z"></glyph>
      <glyph glyph-name="onedot.above" d="M-169 1314l170 172l174 -174l-172 -172z"></glyph>
      <glyph glyph-name="twodots.above" d="M188 1149l-158 160l156 162l162 -162zM-195 1151l-158 160l156 162l162 -162z"></glyph>
      <glyph glyph-name="threedots.above" d="M139 1601l-142 -139l-140 139l144 143zM188 1149l-158 160l156 162l162 -162zM-195 1151l-158 160l156 162l162 -162z"></glyph>
      <glyph glyph-name="threedots.below" d="M1 -780l-144 143l140 139l142 -139zM348 -345l-162 -162l-156 162l158 160zM-35 -347l-162 -162l-156 162l158 160z"></glyph>
      <glyph glyph-name="uni0660" unicode="٠" d="M544 189q-78 0 -147 30t-120.5 82t-81.5 121.5t-30 148.5q0 78 30 147t81.5 120.5t120.5 81.5t147 30q79 0 148.5 -30t121.5 -81.5t82 -120.5t30 -147q0 -79 -30 -148.5t-82 -121.5t-121.5 -82t-148.5 -30zM544 762q-39 0 -74 -15t-60.5 -41t-40.5 -60.5t-15 -74.5 t15 -75t40.5 -61.5t60.5 -41.5t74 -15q40 0 75 15t61.5 41.5t42 61.5t15.5 75t-15.5 74.5t-42 60.5t-61.5 41t-75 15z"></glyph>
      <glyph glyph-name="uni0661" unicode="١" d="M256 1v72.5t2 77.5q2 116 2 260q0 143 -11.5 304t-40 334.5t-83.5 349.5l179 58q59 -187 89.5 -369.5t43 -351t12.5 -317.5q0 -150 -2 -271q-2 -40 -2 -77v-70h-189z"></glyph>
      <glyph glyph-name="uni0662" unicode="٢" d="M979 1455q3 -8 13 -43t21 -84t19.5 -104.5t8.5 -104.5q0 -96 -31 -166t-81 -115.5t-113 -68t-127 -22.5q-81 0 -147 26t-120 66q13 -111 19.5 -214.5t9.5 -198t3 -177.5v-153q-2 -26 -2 -50v-47h-186v181q0 87 -1.5 211t-15.5 291t-45.5 348.5t-89.5 366.5l179 58 l39 -131q0 -1 9 -30.5t28 -72.5t48.5 -93t69 -93t90 -71.5t112.5 -28.5q14 0 41.5 5t55.5 23.5t48.5 55t20.5 100.5q0 33 -6.5 74t-15.5 80t-18.5 72.5t-15.5 51.5z"></glyph>
      <glyph glyph-name="uni0663" unicode="٣" d="M1275 1455q1 -4 10.5 -37.5t20.5 -83t20 -106.5t9 -107q0 -72 -14.5 -139t-47.5 -119t-87 -83t-134 -31q-31 0 -66 6.5t-70.5 23t-69.5 45.5t-63 74q-22 -35 -48 -60t-54 -42t-56.5 -28t-55.5 -17q-29 -7 -59 -7q-18 0 -51.5 4.5t-76.5 27.5q10 -100 14.5 -194 t6.5 -179.5t2 -161v-139.5v-101h-188v101q0 75 -0.5 172.5t-5.5 208t-14.5 229.5t-26.5 238t-43 233.5t-62 215.5l179 58q10 -34 19 -64t17.5 -61.5t17 -65.5t18.5 -76q11 -45 28.5 -92t43.5 -85t61 -60q29 -19 65 -19q8 0 16 1q39 4 68.5 28t46.5 79t21 146q1 17 1 36 q0 81 -11 194l186 18q12 -122 27.5 -215t39.5 -156t58.5 -95.5t84.5 -32.5q32 0 52 13t30.5 37t13.5 58q1 17 1 36t-1 40q-2 39 -8.5 81t-15 80.5t-16.5 70t-13 49.5z"></glyph>
      <glyph glyph-name="uni0664" unicode="٤" d="M633 -1q-14 -1 -29 -1q-50 0 -108.5 12.5t-116.5 41t-102.5 70t-66.5 91.5q-23 51 -23 109q0 9 2 47.5t35 110.5q28 59 73 113.5t102 102.5q-33 5 -62.5 13t-55.5 19q-54 22 -90.5 49.5t-59.5 57t-35 59t-17 55.5q-3 19 -3 44q0 24 6.5 52.5t20.5 60.5t40 66 q34 45 95.5 91t131.5 86.5t138 72t116 47.5l60 -180q-47 -16 -97 -37.5t-98 -48t-90.5 -55t-73.5 -58t-47 -57.5q-14 -23 -14 -44q0 -5 1 -10q4 -23 32 -45.5t84.5 -39.5t144.5 -26q56 -6 127 -6q40 0 84 2l30 -186q-78 -24 -139.5 -57.5t-108 -71.5t-78 -77t-47.5 -73 q-14 -32 -17 -61q-1 -7 -1 -14q0 -20 7 -35q15 -34 60.5 -60t114.5 -36q33 -5 70 -5q41 0 107.5 8t164.5 47l71 -175q-100 -40 -185 -54.5t-153 -14.5z"></glyph>
      <glyph glyph-name="uni0665" unicode="٥" d="M639 -1q-112 0 -213 33.5t-178.5 101t-121 164.5t-43.5 219q0 87 30 179t80.5 188.5t115 196.5t133.5 204l78 115l74 -35q144 -71 260.5 -172t201.5 -226q76 -112 116 -227.5t40 -222.5q0 -125 -39.5 -222t-112 -163.5t-174.5 -100.5q-96 -32 -214 -32h-33zM584 1156 q-61 -91 -117.5 -178t-99.5 -168.5t-69 -155t-26 -137.5q0 -78 26 -139.5t75.5 -104t121 -65.5t163.5 -23q87 0 155.5 19.5t115 60t71 103.5t24.5 149q0 78 -32.5 168t-92.5 177q-21 32 -50.5 68.5t-68.5 75t-87.5 77t-108.5 73.5z"></glyph>
      <glyph glyph-name="uni0666" unicode="٦" d="M900 -34q-40 131 -70 288.5t-50 327.5q-19 172 -22 339q-1 55 -1 110q0 108 5 212q-60 -10 -140.5 -18t-172.5 -8h-14q-87 0 -183.5 11t-195.5 40l53 182q85 -25 172 -34.5t169 -9.5q81 0 152.5 7t124.5 15t84 15t32 7l117 -102q-12 -118 -14 -240q-1 -41 -1 -81 q0 -81 4.5 -182t16.5 -218t29.5 -225.5t38.5 -205.5t45 -177z"></glyph>
      <glyph glyph-name="uni0667" unicode="٧" d="M1295 1355q-51 -60 -100.5 -136.5t-96 -166.5t-89.5 -191.5t-82 -211.5q-33 -93 -59.5 -186t-45 -178t-28.5 -159t-10 -128h-188q0 54 -10 128t-29 159t-45 178t-59 186q-39 110 -82.5 211.5t-90.5 191.5t-96 166.5t-99 136.5l145 122q55 -67 109 -151t105 -181 t98 -206.5t88 -227.5q17 -47 31.5 -93t28.5 -93q14 47 28.5 93t31.5 93q41 118 87.5 227.5t97.5 206.5t105 181t110 151z"></glyph>
      <glyph glyph-name="uni0668" unicode="٨" d="M929 776q38 -111 81 -212.5t89.5 -191t96 -166t99.5 -136.5l-145 -120q-111 134 -214 330t-186 434q-16 47 -31 94t-29 92q-12 -45 -27.5 -92t-32.5 -94q-81 -238 -184 -434t-214 -330l-147 120q51 60 100.5 136.5t96 166t89.5 191t82 212.5q33 94 59 187t45 178 t29 158.5t10 127.5h188q0 -54 10.5 -127.5t29.5 -158.5t45.5 -178t59.5 -187z"></glyph>
      <glyph glyph-name="uni0669" unicode="٩" d="M717 -51q-18 49 -31 128t-22.5 175t-15.5 202.5t-9 210.5h-173q-18 0 -44 2.5t-57 9t-64 19.5t-65 34q-27 18 -54.5 45t-50 66t-37 91t-14.5 120q0 64 10.5 112t27 85t37 63.5t40.5 47.5q52 54 120 82t144 28q69 0 128.5 -21.5t104.5 -63.5q66 -59 98.5 -145t32.5 -214 q0 -191 5 -356.5t14 -297t21.5 -223t28.5 -133.5zM637 854q-2 50 -2.5 93t-0.5 79q0 68 -10 113.5t-25.5 74t-35.5 42.5t-39.5 20t-36.5 6h-28q-90 0 -140 -57t-50 -173q0 -120 71 -164q18 -12 37.5 -19t37 -10t31 -4t20.5 -1h171z"></glyph>
      <glyph glyph-name="uni06F4" unicode="۴" d="M1187 727q-60 -12 -151 -23.5t-199 -11.5q-57 0 -116 4.5t-116.5 16t-113 29.5t-105.5 45q10 -102 16 -198t8 -183.5t2 -165.5t-1 -143v-97h-188v97q1 95 0.5 207t-7 237.5t-21.5 261.5t-43 278q-14 81 -34 158.5t-47 158.5l182 58q22 -74 40 -152t43 -175 q13 -51 32 -84.5t44.5 -56t57 -37t68.5 -26.5q-19 38 -30 86.5t-11 108.5q0 85 33 152.5t86 115t120 73t135 25.5q51 0 95.5 -12.5t85.5 -32t81 -44.5t81 -49l-94 -163q-31 19 -63.5 39t-64.5 36t-63 26.5t-58 10.5q-33 0 -68 -12t-63.5 -35t-46.5 -55.5t-18 -74.5 q0 -57 21 -98.5t56 -67.5q37 -28 89 -41.5t108 -16.5q21 -1 41 -1q35 0 79.5 4t87.5 12q36 6 64 14l46 -182q-2 -2 -23 -6.5t-57 -9.5z"></glyph>
      <glyph glyph-name="uni06F5" unicode="۵" d="M554 1509q6 -4 39.5 -31.5t85 -74.5t115.5 -111t130 -141.5t128.5 -166.5t111.5 -185.5t78.5 -198.5t29.5 -206q0 -65 -12 -115.5t-31 -89t-42.5 -66t-45.5 -45.5q-32 -27 -64.5 -42.5t-62 -23.5t-53 -10t-36.5 -2q-147 0 -237 88q-16 -17 -37.5 -33t-50 -28.5 t-63.5 -20.5t-77 -8q-99 0 -177 43.5t-127 124.5q-22 37 -35 73.5t-19.5 68t-8 55.5t-1.5 35q0 94 23 185.5t60 177t84.5 163.5t96.5 145t95.5 121t82.5 91q-42 37 -67.5 58t-27.5 21zM1021 223q62 52 62 171q0 69 -18 138.5t-48.5 137.5t-71.5 133.5t-87 126.5t-94.5 116.5 t-94.5 103.5q-31 -33 -72 -80t-84 -105t-84.5 -125.5t-74.5 -140t-53 -149t-20 -152.5q0 -10 2 -25.5t6 -34t11 -38t17 -37.5q25 -38 58.5 -57t84.5 -19q43 0 64.5 12t32.5 24q21 25 30 62.5t11 75.5q1 15 1 30q0 22 -2.5 48.5t-5.5 43.5l186 35l4 -28t5 -51.5t1.5 -68 t-7.5 -78.5q3 -8 7.5 -21t12.5 -27q39 -55 125 -55q20 0 46.5 7.5t49.5 26.5z"></glyph>
      <glyph glyph-name="uni06F6" unicode="۶" d="M1050 999l-79 -74q-9 -10 -42 -50t-81.5 -103.5t-108.5 -149t-123.5 -187t-126.5 -217t-116 -238.5l-172 76q80 184 175 346.5t184 292.5q-30 -4 -61 -4q-16 0 -48 2t-78 15.5t-88.5 38t-76.5 61.5q-57 62 -78 135q-17 55 -17 109q0 17 4.5 61t36.5 108t81 111 q38 34 79.5 55t86 34.5t90 23t92.5 19.5l41 -184q-35 -6 -73 -13.5t-73 -17.5t-65 -23.5t-49 -31.5q-25 -23 -41.5 -55t-20.5 -67q-1 -10 -1 -20q0 -25 8.5 -55t36.5 -60q9 -9 23.5 -21t35 -22t47.5 -16q17 -4 37 -4q10 0 21 1q73 4 155.5 52.5t174.5 133.5l83 76z"></glyph>
      <glyph glyph-name="uni066A" unicode="٪" d="M785 1569h199l-595 -1570h-197zM916 6l-203 203l202 201l203 -203zM285 1126l-203 203l202 201l203 -203z"></glyph>
      <glyph glyph-name="uni061F" unicode="؟" d="M594 763q100 -109 100 -315v-143h-186v143q0 137 -106 231q-49 42 -97 82t-99 80q-104 113 -104 279q0 85 40 157.5t104 126t144.5 83.5t161.5 30q199 0 317 -130q114 -131 114 -339h-186q0 282 -245 282q-43 0 -87 -15.5t-80 -43.5t-58.5 -66.5t-22.5 -83.5 q0 -133 102 -214q48 -37 94 -73t94 -71zM603 -158l-155 158l162 161l156 -161z"></glyph>
      <glyph glyph-name="uni060C" unicode="،" d="M471 149q0 -46 -39 -91q-51 -57 -132 -57q-92 0 -144 69q-48 63 -48 158q0 235 238 404q20 -14 42.5 -32t48.5 -39q-189 -137 -189 -281q26 20 86 20q127 -18 137 -151z"></glyph>
      <glyph glyph-name="uni061B" unicode="؛" d="M387 125q0 -49 -38 -87q-38 -36 -87 -36q-51 0 -88 36q-37 37 -37 87q0 51 37 88t88 37q50 0 87 -37q38 -38 38 -88zM440 570q0 -46 -39 -91q-51 -57 -132 -57q-92 0 -144 69q-48 63 -48 158q0 236 184 354q20 -14 42.5 -32t48.5 -39q-135 -87 -135 -231q50 14 86 14 q137 0 137 -145z"></glyph>
      <glyph glyph-name="uni066B" unicode="٫" d="M453 852h144l-481 -1084h-145z"></glyph>
      <glyph glyph-name="uni066C" unicode="٬" d="M214 -5q-32 0 -59.5 12t-48.5 33t-33 48.5t-12 59.5q0 36 13.5 64.5t37 49t54 31t63.5 10.5h5q90 0 141 -66q49 -62 50 -158v-16q0 -271 -333 -438l-58 105q254 122 254 279v5q-34 -19 -74 -19z"></glyph>
      <glyph glyph-name="uni066D" unicode="٭" d="M215 727l240 331l-373 23l29 193l383 -88l-35 370h205l-26 -370l380 88l26 -193l-352 -33l219 -321l-178 -96l-160 359l-174 -359z"></glyph>
      <glyph glyph-name="uni064B" unicode="ً" d="M-240 1702l480 178v-111l-480 -180v113zM-240 1933l480 178v-110l-480 -180v112z"></glyph>
      <glyph glyph-name="uni064D" unicode="ٍ" d="M-240 -680l480 178v-110l-480 -181v113zM-240 -449l480 179v-111l-480 -180v112z"></glyph>
      <glyph glyph-name="uni064E" unicode="َ" d="M-240 1702l480 178v-111l-480 -180v113z"></glyph>
      <glyph glyph-name="uni064F" unicode="ُ" d="M-292 1625q24 7 61.5 18t79.5 27.5t83.5 38t73.5 50.5q-22 11 -37.5 18t-31.5 15q-45 22 -69 50.5t-33 58.5q-8 23 -8 46q0 6 2 23.5t11 37.5q15 31 42 57t59 41.5t68 18.5h8q31 0 59 -14q65 -32 86 -104q7 -27 11 -56q2 -13 2 -27q0 -17 -4 -43t-20 -65t-48 -84 q-23 -33 -57 -59.5t-72.5 -48t-78 -37.5t-72.5 -27.5t-57 -18t-32 -8.5zM16 2031q-12 0 -26.5 -4t-28.5 -11.5t-25.5 -18t-18.5 -23.5q-1 0 -2 -9q-1 -3 -1 -6q0 -8 4 -20.5t17.5 -29.5t42.5 -32q15 -8 33.5 -16.5t52.5 -24.5q15 29 18 72q1 10 1 19q0 31 -8 58 q-8 19 -23 32.5t-36 13.5z"></glyph>
      <glyph glyph-name="uni064C" unicode="ٌ" d="M-271 1661q7 11 14.5 30t12 40.5t5 42.5t-6.5 35q-4 6 -13 14.5t-24 10.5q-13 0 -26.5 -3.5t-25.5 -9t-21.5 -11t-13.5 -8.5l-58 57q3 4 15 15t32 23t47 21q23 7 49 7h7q35 -2 62.5 -19t43.5 -47q19 -34 19.5 -75.5t-7.5 -80.5q54 16 113 39.5t104 54.5q-13 5 -27 9.5 t-39 16.5q-44 22 -67.5 51t-32.5 60q-6 21 -6 41q0 8 2 26.5t12 37.5q15 31 41 56.5t57.5 41t65.5 17.5h8q30 0 58 -13q62 -30 85 -104q7 -25 10 -52q1 -12 1 -25q0 -16 -3.5 -40.5t-16 -58.5t-35.5 -71q-20 -33 -55 -60t-76 -48.5t-84 -38t-79.5 -27.5t-63 -17t-33.5 -7z M71 2062q-11 0 -25 -4.5t-27.5 -12.5t-25.5 -19t-19 -23l-1 -10v-4q0 -9 3.5 -22.5t16 -30.5t40.5 -30q15 -9 36.5 -17t47.5 -17q3 14 6.5 32t5.5 38q1 13 1 26q0 6 -0.5 19t-5.5 31q-11 27 -35 41l-8 2t-10 1z"></glyph>
      <glyph glyph-name="uni0650" unicode="ِ" d="M-240 -449l480 179v-111l-480 -180v112z"></glyph>
      <glyph glyph-name="uni0651" unicode="ّ" d="M-130 1691q-87 0 -136 48t-49 134v106h91v-106q0 -48 22 -70t72 -22q7 0 20.5 2.5t26.5 12t23 28t10 49.5v106h92v-106q0 -48 22 -70.5t73 -22.5q7 0 20 3.5t26 13t22 28t9 48.5q0 15 -3.5 36t-8.5 42t-9.5 39t-7.5 27l85 29q1 -5 7 -23.5t12 -44t11 -53.5t5 -52 q0 -47 -15 -81.5t-39.5 -57t-55 -33.5t-60.5 -11q-92 0 -140 53q-25 -27 -58 -39.5t-67 -12.5z"></glyph>
      <glyph glyph-name="uni0652" unicode="ْ" d="M-2 1671q-51 0 -92 15t-70.5 42.5t-45 67.5t-15.5 90q0 51 16 90.5t45 67.5t70 42.5t92 14.5q102 0 166 -59q63 -59 63 -154q0 -100 -63 -158q-64 -59 -166 -59zM-2 1774q49 0 81 29t32 83t-32 83.5t-81 29.5q-51 0 -82 -29.5t-31 -83.5q0 -112 113 -112z"></glyph>
      <glyph glyph-name="uni0653" unicode="ٓ" d="M417 1612h-483q-63 0 -106 -5t-72.5 -20t-48 -43t-32.5 -74l-158 47q46 161 167 221q51 26 113 33.5t137 7.5h483v-167z"></glyph>
      <glyph glyph-name="uni0654" unicode="ٔ" d="M-264 1500l9 127l124 37q-54 43 -74 104q-9 27 -9 54q0 12 3.5 38.5t23 61t51 60t69.5 36.5q27 9 54 9.5t52.5 -3t48.5 -11t43 -14.5l-25 -101q-17 4 -36 8t-38 6.5t-36 2t-28 -4.5q-17 -6 -31.5 -16.5t-24 -24t-12.5 -30.5q-1 -6 -1 -12q0 -12 4 -25q6 -20 22.5 -36.5 t44.5 -25.5t67 -9t92 14l85 25l34 -108z"></glyph>
      <glyph glyph-name="uni0655" unicode="ٕ" d="M-230 -634l9 127l124 37q-54 43 -74 104q-9 27 -9 54q0 12 3.5 38.5t23 61t51 60t69.5 36.5q27 9 54 9.5t52.5 -3t48.5 -11t43 -14.5l-25 -101q-17 4 -36 8t-38 6.5t-36 2t-28 -4.5q-17 -6 -31.5 -16.5t-24 -24t-12.5 -30.5q-1 -6 -1 -12q0 -12 4 -25q6 -20 22.5 -36.5 t44.5 -25.5t67 -9t92 14l85 25l34 -108z"></glyph>
      <glyph glyph-name="uni0670" unicode="ٰ" d="M-59 2058h116v-397h-116v397z"></glyph>
      <glyph glyph-name="uni0656" unicode="ٖ" d="M-59 -395h116v-398h-116v398z"></glyph>
      <glyph glyph-name="uni0615" unicode="ؕ" d="M-340 1206v85h100l47 73v485h83v-363q38 46 84 77t103 31q33 0 64.5 -12t56.5 -37.5t40.5 -64.5t15.5 -92q0 -51 -17 -85.5t-43 -56t-58.5 -31t-63.5 -9.5h-412zM72 1291q42 0 69 23t27 74q0 58 -23.5 89.5t-67.5 31.5q-32 0 -61 -20t-56 -51.5t-51.5 -69.5t-45.5 -74 q-1 -1 -1 -3h210z"></glyph>
      <glyph glyph-name="wasla" d="M-307 1574l19 85h129l47 73l83 122q38 46 84 77t103 31q33 0 64.5 -12t56.5 -37.5t40.5 -64.5t15.5 -92q0 -51 -17 -85.5t-43 -56t-58.5 -31t-63.5 -9.5h-460zM153 1659q42 0 69 23t27 74q0 58 -23.5 89.5t-67.5 31.5q-32 0 -61 -20t-56 -51.5t-51.5 -69.5t-45.5 -74 q-1 -1 -1 -3h210z"></glyph>
      <glyph glyph-name="beh_dotless_alt.init" d="M675 814q2 -6 8 -32t13.5 -64.5t16.5 -85t16 -94t12 -91.5t5 -77q0 -96 -31.5 -165.5t-82 -115t-113.5 -67.5t-127 -22h-414v189h414q15 0 42.5 4.5t55 22.5t48 54t20.5 100q0 22 -3.5 55.5t-9 72t-12.5 79t-14 76.5t-13 64t-10 42z"></glyph>
      <glyph glyph-name="beh_dotless_alt.medi" d="M1072 189v-189h-175q-91 0 -160.5 26t-111.5 78q-104 -104 -308 -104h-340v189h340q72 0 114 14.5t63.5 36t28 48t6.5 50.5v338h188v-331q0 -37 11.5 -63t28.5 -43.5t38.5 -27.5t41.5 -15t36 -6t24 -1h175z"></glyph>
      <glyph glyph-name="onedot.below" d="M-169 -289l170 172l174 -174l-172 -172z"></glyph>
      <glyph glyph-name="twodots.below" d="M348 -283l-162 -162l-156 162l158 160zM-35 -285l-162 -162l-156 162l158 160z"></glyph>
      <glyph glyph-name="alef_alt.isol" d="M389 0h-189v1277h189v-1277z"></glyph>
      <glyph glyph-name="alef_alt.fina" d="M626 0q-95 1 -163.5 14.5t-116 39t-76 64t-44.5 90t-21 115.5t-5 142v809h189v-809q0 -87 5.5 -141t29 -83.5t71 -40t131.5 -11.5v-189z"></glyph>
      <glyph glyph-name="uni06D5" unicode="ە" d="M525 0q-90 0 -165.5 27.5t-131 76t-86.5 115t-31 144.5q0 100 26.5 176.5t67.5 138t90 112.5t94 100l-62 69l140 127q52 -58 107.5 -116.5t108.5 -118t99.5 -119t81.5 -119t56 -118.5q19 -57 19 -112v-6q-1 -81 -32.5 -151.5t-91.5 -124.5q-56 -48 -130.5 -74.5 t-159.5 -26.5zM512 755q-38 -43 -76 -85.5t-68 -89.5t-49 -100t-19 -117q0 -45 19.5 -77.5t51 -54t72 -32t82.5 -10.5q51 0 92.5 13.5t71 38.5t45.5 59.5t16 76.5q0 50 -21 98.5t-54.5 95.5t-76.5 93t-86 91z"></glyph>
      <glyph glyph-name="heh_ae.fina" d="M1275 0h-25q-160 0 -279.5 68.5t-183.5 191.5q-32 -44 -76.5 -76.5t-100.5 -57.5q-32 -13 -74 -21t-89 -8t-96.5 11t-96.5 37q-72 38 -115.5 100.5t-57.5 147.5q-7 39 -7 77q0 64 25.5 143t103.5 160q137 140 387 214l-19 108l184 39q24 -100 42 -177.5t32 -139.5 q3 -12 9.5 -40t15.5 -64.5t19 -78.5t20 -82t19 -75t16 -58q20 -75 59 -120.5t85 -70t93.5 -32t84.5 -7.5h25v-189zM640 805q-99 -29 -175 -69t-125.5 -88.5t-70.5 -104.5q-14 -37 -14 -76q0 -20 4 -41q7 -42 30 -70.5t54 -45.5q22 -13 48 -18.5t52 -5.5h10q21 0 43 3.5 t41 11.5q126 52 147 189q4 32 4 60q0 15 -3 42t-6 41z"></glyph>
      <glyph glyph-name="uni06C2" unicode="ۂ" d="M525 0q-90 0 -165.5 27.5t-131 76t-86.5 115t-31 144.5q0 100 26.5 176.5t67.5 138t90 112.5t94 100l-62 69l140 127q52 -58 107.5 -116.5t108.5 -118t99.5 -119t81.5 -119t56 -118.5q19 -57 19 -112v-6q-1 -81 -32.5 -151.5t-91.5 -124.5q-56 -48 -130.5 -74.5 t-159.5 -26.5zM512 755q-38 -43 -76 -85.5t-68 -89.5t-49 -100t-19 -117q0 -45 19.5 -77.5t51 -54t72 -32t82.5 -10.5q51 0 92.5 13.5t71 38.5t45.5 59.5t16 76.5q0 50 -21 98.5t-54.5 95.5t-76.5 93t-86 91zM185 1168l9 127l124 37q-54 43 -74 104q-9 27 -9 54 q0 12 3.5 38.5t23 61t51 60t69.5 36.5q27 9 54 9.5t52.5 -3t48.5 -11t43 -14.5l-25 -101q-17 4 -36 8t-38 6.5t-36 2t-28 -4.5q-17 -6 -31.5 -16.5t-24 -24t-12.5 -30.5q-1 -6 -1 -12q0 -12 4 -25q6 -20 22.5 -36.5t44.5 -25.5t67 -9t92 14l85 25l34 -108z"></glyph>
      <glyph glyph-name="uni06C3" unicode="ۃ" d="M525 0q-90 0 -165.5 27.5t-131 76t-86.5 115t-31 144.5q0 100 26.5 176.5t67.5 138t90 112.5t94 100l-62 69l140 127q52 -58 107.5 -116.5t108.5 -118t99.5 -119t81.5 -119t56 -118.5q19 -57 19 -112v-6q-1 -81 -32.5 -151.5t-91.5 -124.5q-56 -48 -130.5 -74.5 t-159.5 -26.5zM512 755q-38 -43 -76 -85.5t-68 -89.5t-49 -100t-19 -117q0 -45 19.5 -77.5t51 -54t72 -32t82.5 -10.5q51 0 92.5 13.5t71 38.5t45.5 59.5t16 76.5q0 50 -21 98.5t-54.5 95.5t-76.5 93t-86 91zM640 1170l-158 160l156 162l162 -162zM257 1172l-158 160 l156 162l162 -162z"></glyph>
      <glyph glyph-name="uni06F0" unicode="۰" d="M544 189q-78 0 -147 30t-120.5 82t-81.5 121.5t-30 148.5q0 78 30 147t81.5 120.5t120.5 81.5t147 30q79 0 148.5 -30t121.5 -81.5t82 -120.5t30 -147q0 -79 -30 -148.5t-82 -121.5t-121.5 -82t-148.5 -30zM544 762q-39 0 -74 -15t-60.5 -41t-40.5 -60.5t-15 -74.5 t15 -75t40.5 -61.5t60.5 -41.5t74 -15q40 0 75 15t61.5 41.5t42 61.5t15.5 75t-15.5 74.5t-42 60.5t-61.5 41t-75 15z"></glyph>
      <glyph glyph-name="uni06F1" unicode="۱" d="M256 1v72.5t2 77.5q2 116 2 260q0 143 -11.5 304t-40 334.5t-83.5 349.5l179 58q59 -187 89.5 -369.5t43 -351t12.5 -317.5q0 -150 -2 -271q-2 -40 -2 -77v-70h-189z"></glyph>
      <glyph glyph-name="uni06F2" unicode="۲" d="M979 1455q3 -8 13 -43t21 -84t19.5 -104.5t8.5 -104.5q0 -96 -31 -166t-81 -115.5t-113 -68t-127 -22.5q-81 0 -147 26t-120 66q13 -111 19.5 -214.5t9.5 -198t3 -177.5v-153q-2 -26 -2 -50v-47h-186v181q0 87 -1.5 211t-15.5 291t-45.5 348.5t-89.5 366.5l179 58 l39 -131q0 -1 9 -30.5t28 -72.5t48.5 -93t69 -93t90 -71.5t112.5 -28.5q14 0 41.5 5t55.5 23.5t48.5 55t20.5 100.5q0 33 -6.5 74t-15.5 80t-18.5 72.5t-15.5 51.5z"></glyph>
      <glyph glyph-name="uni06F3" unicode="۳" d="M1275 1455q1 -4 10.5 -37.5t20.5 -83t20 -106.5t9 -107q0 -72 -14.5 -139t-47.5 -119t-87 -83t-134 -31q-31 0 -66 6.5t-70.5 23t-69.5 45.5t-63 74q-22 -35 -48 -60t-54 -42t-56.5 -28t-55.5 -17q-29 -7 -59 -7q-18 0 -51.5 4.5t-76.5 27.5q10 -100 14.5 -194 t6.5 -179.5t2 -161v-139.5v-101h-188v101q0 75 -0.5 172.5t-5.5 208t-14.5 229.5t-26.5 238t-43 233.5t-62 215.5l179 58q10 -34 19 -64t17.5 -61.5t17 -65.5t18.5 -76q11 -45 28.5 -92t43.5 -85t61 -60q29 -19 65 -19q8 0 16 1q39 4 68.5 28t46.5 79t21 146q1 17 1 36 q0 81 -11 194l186 18q12 -122 27.5 -215t39.5 -156t58.5 -95.5t84.5 -32.5q32 0 52 13t30.5 37t13.5 58q1 17 1 36t-1 40q-2 39 -8.5 81t-15 80.5t-16.5 70t-13 49.5z"></glyph>
      <glyph glyph-name="uni06F9" unicode="۹" d="M757 -51q-18 49 -31 128t-22.5 175t-15.5 202.5t-9 210.5h-173q-18 0 -44 2.5t-57 9t-64 19.5t-65 34q-27 18 -54.5 45t-50 66t-37 91t-14.5 120q0 64 10.5 112t27 85t37 63.5t40.5 47.5q52 54 120 82t144 28q69 0 128.5 -21.5t104.5 -63.5q66 -59 98.5 -145t32.5 -214 q0 -191 5 -356.5t14 -297t21.5 -223t28.5 -133.5zM677 854q-2 50 -2.5 93t-0.5 79q0 68 -10 113.5t-25.5 74t-35.5 42.5t-39.5 20t-36.5 6h-28q-90 0 -140 -57t-50 -173q0 -120 71 -164q18 -12 37.5 -19t37 -10t31 -4t20.5 -1h171z"></glyph>
      <glyph glyph-name="uni06F7" unicode="۷" d="M1295 1355q-51 -60 -100.5 -136.5t-96 -166.5t-89.5 -191.5t-82 -211.5q-33 -93 -59.5 -186t-45 -178t-28.5 -159t-10 -128h-188q0 54 -10 128t-29 159t-45 178t-59 186q-39 110 -82.5 211.5t-90.5 191.5t-96 166.5t-99 136.5l145 122q55 -67 109 -151t105 -181 t98 -206.5t88 -227.5q17 -47 31.5 -93t28.5 -93q14 47 28.5 93t31.5 93q41 118 87.5 227.5t97.5 206.5t105 181t110 151z"></glyph>
      <glyph glyph-name="uni06F8" unicode="۸" d="M929 776q38 -111 81 -212.5t89.5 -191t96 -166t99.5 -136.5l-145 -120q-111 134 -214 330t-186 434q-16 47 -31 94t-29 92q-12 -45 -27.5 -92t-32.5 -94q-81 -238 -184 -434t-214 -330l-147 120q51 60 100.5 136.5t96 166t89.5 191t82 212.5q33 94 59 187t45 178 t29 158.5t10 127.5h188q0 -54 10.5 -127.5t29.5 -158.5t45.5 -178t59.5 -187z"></glyph>
      <glyph glyph-name="uni06F4.urdu" d="M1005 1424q5 -12 18 -34.5t27 -45.5q8 -13 16.5 -27t17.5 -29q-69 -60 -131 -132q-27 -32 -56 -70t-57 -81.5t-53 -92.5t-44 -102l-117 -37q-35 167 -114 281q-40 57 -80 90q-33 26 -66 26q-9 0 -17 -2q-37 -6 -52 -34t-15 -59q0 -25 6 -58t19.5 -76.5t36 -98 t55.5 -122.5l88 -180q36 -80 62.5 -154.5t44.5 -140t27.5 -120t10.5 -93.5l-153 -42q-15 97 -43 195t-73 204q-43 100 -82.5 189.5t-82.5 182.5q-20 42 -38.5 91.5t-30 102t-13.5 105.5q-1 11 -1 22q0 41 10 84t37.5 84.5t76.5 71.5q20 13 59 24t85 11.5t94 -14.5t87 -54 q40 -40 71.5 -97t59.5 -127q17 46 52 99.5t78.5 104t91 92t88.5 63.5z"></glyph>
      <glyph glyph-name="uni06F7.urdu" d="M878 41q-20 -5 -41 -10t-36 -7q-30 -6 -69 -10t-83 -7t-91 -4t-93 -1q-21 0 -41 0.5t-40.5 2t-42.5 4t-49 5.5q-54 5 -95.5 11t-64.5 13q-10 42 -15.5 85t-5.5 88q0 96 35 193.5t96 200.5q30 51 69.5 112t90.5 133t116.5 155.5t148.5 180.5q12 14 29 34.5t36 43t38 44.5 t35 39q12 -13 29.5 -33.5t34.5 -40.5l20 -24t21 -25l-43 -53l-72 -88l-240 -312q-78 -102 -131.5 -188t-87 -153.5t-48 -116.5t-14.5 -77q7 -3 20 -6t28 -5.5t29.5 -4.5t25.5 -3q27 -4 47.5 -6.5t39.5 -4t38.5 -2t44.5 -0.5q100 0 194 11.5t185 25.5v-186z"></glyph>
      <glyph glyph-name="Ghunna_above" d="M-66 1194q-87 0 -137.5 58t-50.5 167q0 117 37 209l77 -20q-8 -20 -14 -40t-9.5 -41.5t-5 -46.5t-1.5 -55q0 -157 123 -157h24q82 0 120 36t38 111v215h80v-209q0 -112 -56 -169.5t-177 -57.5h-48zM-51 1843h80v-334h-80v334z"></glyph>
      <glyph glyph-name="uni0651064B" d="M-220 1691q-87 0 -136 48t-49 134v106h91v-106q0 -48 22 -70t72 -22q7 0 20.5 2.5t26.5 12t23 28t10 49.5v106h92v-106q0 -48 22 -70.5t73 -22.5q7 0 20 3.5t26 13t22 28t9 48.5q0 15 -3.5 36t-8.5 42t-9.5 39t-7.5 27l85 29q1 -5 7 -23.5t12 -44t11 -53.5t5 -52 q0 -47 -15 -81.5t-39.5 -57t-55 -33.5t-60.5 -11q-92 0 -140 53q-25 -27 -58 -39.5t-67 -12.5zM-367 2183l480 178v-111l-480 -180v113zM-367 2414l480 178v-110l-480 -180v112z"></glyph>
      <glyph glyph-name="uni0654064B" d="M-240 2091l480 178v-111l-480 -180v113zM-240 2322l480 178v-110l-480 -180v112zM-234 1473l9 127l124 37q-54 43 -74 104q-9 27 -9 54q0 12 3.5 38.5t23 61t51 60t69.5 36.5q27 9 54 9.5t52.5 -3t48.5 -11t43 -14.5l-25 -101q-17 4 -36 8t-38 6.5t-36 2t-28 -4.5 q-17 -6 -31.5 -16.5t-24 -24t-12.5 -30.5q-1 -6 -1 -12q0 -12 4 -25q6 -20 22.5 -36.5t44.5 -25.5t67 -9t92 14l85 25l34 -108z"></glyph>
      <glyph glyph-name="uni0654064E" d="M-240 2083l480 178v-111l-480 -180v113zM-218 1462l9 127l124 37q-54 43 -74 104q-9 27 -9 54q0 12 3.5 38.5t23 61t51 60t69.5 36.5q27 9 54 9.5t52.5 -3t48.5 -11t43 -14.5l-25 -101q-17 4 -36 8t-38 6.5t-36 2t-28 -4.5q-17 -6 -31.5 -16.5t-24 -24t-12.5 -30.5 q-1 -6 -1 -12q0 -12 4 -25q6 -20 22.5 -36.5t44.5 -25.5t67 -9t92 14l85 25l34 -108z"></glyph>
      <glyph glyph-name="uni0654064C" d="M-271 2099q7 11 14.5 30t12 40.5t5 42.5t-6.5 35q-4 6 -13 14.5t-24 10.5q-13 0 -26.5 -3.5t-25.5 -9t-21.5 -11t-13.5 -8.5l-58 57q3 4 15 15t32 23t47 21q23 7 49 7h7q35 -2 62.5 -19t43.5 -47q19 -34 19.5 -75.5t-7.5 -80.5q54 16 113 39.5t104 54.5q-13 5 -27 9.5 t-39 16.5q-44 22 -67.5 51t-32.5 60q-6 21 -6 41q0 8 2 26.5t12 37.5q15 31 41 56.5t57.5 41t65.5 17.5h8q30 0 58 -13q62 -30 85 -104q7 -25 10 -52q1 -12 1 -25q0 -16 -3.5 -40.5t-16 -58.5t-35.5 -71q-20 -33 -55 -60t-76 -48.5t-84 -38t-79.5 -27.5t-63 -17t-33.5 -7z M71 2500q-11 0 -25 -4.5t-27.5 -12.5t-25.5 -19t-19 -23l-1 -10v-4q0 -9 3.5 -22.5t16 -30.5t40.5 -30q15 -9 36.5 -17t47.5 -17q3 14 6.5 32t5.5 38q1 13 1 26q0 6 -0.5 19t-5.5 31q-11 27 -35 41l-8 2t-10 1zM-264 1500l9 127l124 37q-54 43 -74 104q-9 27 -9 54 q0 12 3.5 38.5t23 61t51 60t69.5 36.5q27 9 54 9.5t52.5 -3t48.5 -11t43 -14.5l-25 -101q-17 4 -36 8t-38 6.5t-36 2t-28 -4.5q-17 -6 -31.5 -16.5t-24 -24t-12.5 -30.5q-1 -6 -1 -12q0 -12 4 -25q6 -20 22.5 -36.5t44.5 -25.5t67 -9t92 14l85 25l34 -108z"></glyph>
      <glyph glyph-name="uni0654064F" d="M-292 2080q24 7 61.5 18t79.5 27.5t83.5 38t73.5 50.5q-22 11 -37.5 18t-31.5 15q-45 22 -69 50.5t-33 58.5q-8 23 -8 46q0 6 2 23.5t11 37.5q15 31 42 57t59 41.5t68 18.5h8q31 0 59 -14q65 -32 86 -104q7 -27 11 -56q2 -13 2 -27q0 -17 -4 -43t-20 -65t-48 -84 q-23 -33 -57 -59.5t-72.5 -48t-78 -37.5t-72.5 -27.5t-57 -18t-32 -8.5zM16 2486q-12 0 -26.5 -4t-28.5 -11.5t-25.5 -18t-18.5 -23.5q-1 0 -2 -9q-1 -3 -1 -6q0 -8 4 -20.5t17.5 -29.5t42.5 -32q15 -8 33.5 -16.5t52.5 -24.5q15 29 18 72q1 10 1 19q0 31 -8 58 q-8 19 -23 32.5t-36 13.5zM-264 1500l9 127l124 37q-54 43 -74 104q-9 27 -9 54q0 12 3.5 38.5t23 61t51 60t69.5 36.5q27 9 54 9.5t52.5 -3t48.5 -11t43 -14.5l-25 -101q-17 4 -36 8t-38 6.5t-36 2t-28 -4.5q-17 -6 -31.5 -16.5t-24 -24t-12.5 -30.5q-1 -6 -1 -12 q0 -12 4 -25q6 -20 22.5 -36.5t44.5 -25.5t67 -9t92 14l85 25l34 -108z"></glyph>
      <glyph glyph-name="uni06540652" d="M-2 2056q-51 0 -92 15t-70.5 42.5t-45 67.5t-15.5 90q0 51 16 90.5t45 67.5t70 42.5t92 14.5q102 0 166 -59q63 -59 63 -154q0 -100 -63 -158q-64 -59 -166 -59zM-2 2159q49 0 81 29t32 83t-32 83.5t-81 29.5q-51 0 -82 -29.5t-31 -83.5q0 -112 113 -112zM-264 1500 l9 127l124 37q-54 43 -74 104q-9 27 -9 54q0 12 3.5 38.5t23 61t51 60t69.5 36.5q27 9 54 9.5t52.5 -3t48.5 -11t43 -14.5l-25 -101q-17 4 -36 8t-38 6.5t-36 2t-28 -4.5q-17 -6 -31.5 -16.5t-24 -24t-12.5 -30.5q-1 -6 -1 -12q0 -12 4 -25q6 -20 22.5 -36.5t44.5 -25.5 t67 -9t92 14l85 25l34 -108z"></glyph>
      <glyph glyph-name="uni0655064D" d="M-240 -965l480 178v-110l-480 -181v113zM-240 -734l480 179v-111l-480 -180v112zM-230 -634l9 127l124 37q-54 43 -74 104q-9 27 -9 54q0 12 3.5 38.5t23 61t51 60t69.5 36.5q27 9 54 9.5t52.5 -3t48.5 -11t43 -14.5l-25 -101q-17 4 -36 8t-38 6.5t-36 2t-28 -4.5 q-17 -6 -31.5 -16.5t-24 -24t-12.5 -30.5q-1 -6 -1 -12q0 -12 4 -25q6 -20 22.5 -36.5t44.5 -25.5t67 -9t92 14l85 25l34 -108z"></glyph>
      <glyph glyph-name="uni06550650" d="M-240 -742l480 179v-111l-480 -180v112zM-230 -634l9 127l124 37q-54 43 -74 104q-9 27 -9 54q0 12 3.5 38.5t23 61t51 60t69.5 36.5q27 9 54 9.5t52.5 -3t48.5 -11t43 -14.5l-25 -101q-17 4 -36 8t-38 6.5t-36 2t-28 -4.5q-17 -6 -31.5 -16.5t-24 -24t-12.5 -30.5 q-1 -6 -1 -12q0 -12 4 -25q6 -20 22.5 -36.5t44.5 -25.5t67 -9t92 14l85 25l34 -108z"></glyph>
      <glyph glyph-name="uni0692" unicode="ڒ" d="M0 -555v189h138q103 0 178.5 24.5t125 75.5t73 130t23.5 188v624h189v-624q0 -143 -37.5 -255.5t-111.5 -190.5t-184.5 -119.5t-255.5 -41.5h-138zM905 1281l-225 -408h-127l-228 408h160l129 -264l133 264h158z"></glyph>
      <glyph glyph-name="uni0695" unicode="ڕ" d="M0 -555v189h138q103 0 178.5 24.5t125 75.5t73 130t23.5 188v624h189v-624q0 -143 -37.5 -255.5t-111.5 -190.5t-184.5 -119.5t-255.5 -41.5h-138zM653 -679l-225 -408h-127l-228 408h160l129 -264l133 264h158z"></glyph>
      <glyph glyph-name="uni06A8" unicode="ڨ" d="M794 -554h-100q-77 0 -148 17.5t-133.5 50.5t-114 81.5t-89.5 110.5q-54 85 -78 189q-19 80 -19 168q0 26 4 98.5t41 202t105 267.5l170 -81q-56 -116 -88.5 -222.5t-40.5 -201.5q-3 -32 -3 -62q0 -60 13.5 -127.5t54.5 -131.5q50 -81 135 -125.5t191 -44.5h90v2 q151 0 254 23t163 71q52 42 76.5 107t24.5 162h-184q-70 0 -142 21t-130.5 69t-95.5 125.5t-37 189.5q0 66 11.5 119.5t29 95.5t38.5 73t41 53q55 55 126 85t152 30q71 0 133 -22t111 -66q135 -126 135 -395v-378q0 -142 -41.5 -244.5t-128.5 -171.5t-214.5 -102t-311.5 -34 v-2zM1111 672q-99 0 -154 -70t-55 -197q0 -129 78 -179q19 -12 39 -19.5t39 -11t34.5 -5t25.5 -1.5h184v189q0 73 -11 123.5t-28 83.5t-38.5 50.5t-42.5 25.5t-40 9.5t-31 1.5zM1244 1468l-142 -139l-140 139l144 143zM1293 1016l-158 160l156 162l162 -162zM910 1018 l-158 160l156 162l162 -162z"></glyph>
      <glyph glyph-name="uni06AA" unicode="ڪ" d="M448 0q-65 0 -128 22t-113.5 67.5t-81.5 115t-31 165.5q0 49 10 108t22 112t23 91.5t14 47.5l179 -57q-6 -20 -16 -57t-19.5 -80.5t-16.5 -87.5t-7 -77q0 -64 20.5 -100t47.5 -54t54.5 -22.5t42.5 -4.5h1551q-6 69 -25.5 123.5t-58.5 92.5t-101.5 58t-154.5 20 q-169 0 -296.5 0.5t-222.5 3.5t-161.5 9.5t-111.5 17.5t-73 28t-46 42q-18 23 -24.5 47.5t-6.5 47.5q0 22 4.5 41t8.5 30q59 214 427 407q64 33 124 59t107 44t76 28.5t31 11.5l90 27l58 -179l-90 -28q-1 -1 -27.5 -10t-70 -26t-99 -41.5t-114.5 -55.5 q-143 -75 -228.5 -148.5t-104.5 -139.5v-2q17 -5 56.5 -10t113.5 -8q46 -3 103 -4t128 -2t157.5 -1h191.5q332 0 460 -226q27 -48 41 -99t21 -98.5t8 -87.5t1 -67l-94 -94h-1648z"></glyph>
      <glyph glyph-name="uni06B5" unicode="ڵ" d="M583 -553q-134 0 -243.5 58.5t-177.5 164.5q-27 43 -52 113t-29 169q-1 15 -1 31q0 87 24.5 205t101.5 278l170 -81q-47 -96 -73.5 -184t-32.5 -166q-2 -27 -2 -53q0 -48 10 -103t43 -108q42 -64 110.5 -99.5t151.5 -35.5h72q114 0 186.5 24t113 68.5t55.5 106.5t15 139 v1453h186v-1453q0 -525 -556 -527h-72zM1394 1961l-225 -408h-127l-228 408h160l129 -264l133 264h158z"></glyph>
      <glyph glyph-name="uni06440675.isol" d="M143 189h539q92 0 143.5 13.5t79.5 41.5q20 19 29.5 53.5t9.5 91.5v1039h188v-1039q0 -199 -113.5 -294t-336.5 -95h-539v189zM268 366l-60 1021l187 21l61 -1042h-188zM475 1436l9 127l124 37q-54 43 -74 104q-9 27 -9 54q0 12 3.5 38.5t23 61t51 60t69.5 36.5 q27 9 54 9.5t52.5 -3t48.5 -11t43 -14.5l-25 -101q-17 4 -36 8t-38 6.5t-36 2t-28 -4.5q-17 -6 -31.5 -16.5t-24 -24t-12.5 -30.5q-1 -6 -1 -12q0 -12 4 -25q6 -20 22.5 -36.5t44.5 -25.5t67 -9t92 14l85 25l34 -108z"></glyph>
      <glyph glyph-name="uni06440675.fina" d="M268 366l-60 1021l187 21l61 -1042h-188zM1365 189v-189h-51q-91 0 -160.5 26t-111.5 78q-104 -104 -308 -104h-590v189h590q72 0 114 14.5t63.5 36t28 48t6.5 50.5v1090h188v-1083q0 -37 11 -63t28.5 -43.5t39 -27.5t41.5 -15t36 -6t24 -1h51zM475 1446l9 127l124 37 q-54 43 -74 104q-9 27 -9 54q0 12 3.5 38.5t23 61t51 60t69.5 36.5q27 9 54 9.5t52.5 -3t48.5 -11t43 -14.5l-25 -101q-17 4 -36 8t-38 6.5t-36 2t-28 -4.5q-17 -6 -31.5 -16.5t-24 -24t-12.5 -30.5q-1 -6 -1 -12q0 -12 4 -25q6 -20 22.5 -36.5t44.5 -25.5t67 -9t92 14 l85 25l34 -108z"></glyph>
      <glyph glyph-name="uni06B50627.isol" d="M143 189h539q92 0 143.5 13.5t79.5 41.5q20 19 29.5 53.5t9.5 91.5v1039h188v-1039q0 -199 -113.5 -294t-336.5 -95h-539v189zM268 366l-60 1021l187 21l61 -1042h-188zM1327 1965l-225 -408h-127l-228 408h160l129 -264l133 264h158z"></glyph>
      <glyph glyph-name="uni06B50627.fina" d="M268 366l-60 1021l187 21l61 -1042h-188zM1365 189v-189h-51q-91 0 -160.5 26t-111.5 78q-104 -104 -308 -104h-590v189h590q72 0 114 14.5t63.5 36t28 48t6.5 50.5v1090h188v-1083q0 -37 11 -63t28.5 -43.5t39 -27.5t41.5 -15t36 -6t24 -1h51zM1337 1965l-225 -408h-127 l-228 408h160l129 -264l133 264h158z"></glyph>
      <glyph glyph-name="uni065A" unicode="ٚ" d="M291 1426l-225 -408h-127l-228 408h160l129 -264l133 264h158z"></glyph>
      <glyph glyph-name="uni065B" unicode="ٛ" d="M-270 1069l225 408h86l227 -408h-139l-129 264l-133 -264h-137z"></glyph>
      <glyph glyph-name="smallv.arabic" d="M291 1696l-225 -408h-127l-228 408h160l129 -264l133 264h158z"></glyph>
      <glyph glyph-name="circumflex.arabic" d="M-270 1286l225 408h86l227 -408h-139l-129 264l-133 -264h-137z"></glyph>
      <glyph glyph-name="uni06A4" unicode="ڤ" d="M1620 897q-34 0 -66.5 -11.5t-58 -36t-41.5 -62t-16 -88.5q0 -38 9 -68t34.5 -51t70.5 -32t117 -11h152q-5 64 -12.5 128t-27 115.5t-57.5 84t-104 32.5zM1466 -3h-982q-70 1 -133 24.5t-111 68.5q-20 18 -40 44t-36 61.5t-26.5 80t-10.5 100.5q0 50 10 110t23 113.5 t24 93t14 48.5l180 -57l-17 -59.5t-21 -82.5t-17.5 -88.5t-7.5 -77.5q0 -66 21 -104t49.5 -57t57 -24t43.5 -5h980q75 0 129.5 7.5t93.5 19.5t63.5 28.5t39 34.5t20.5 36.5t8 35.5q-32 0 -71 0.5t-80 0.5q-75 0 -149.5 14t-134.5 53t-97.5 107t-37.5 176q0 81 27.5 151 t76.5 122.5t117 82.5t149 30q111 0 186 -48.5t120.5 -128t64.5 -181t19 -207.5v-137q0 -114 -45 -188.5t-120.5 -118.5t-174 -61.5t-204.5 -17.5zM1778 1628l-142 -139l-140 139l144 143zM1827 1176l-158 160l156 162l162 -162zM1444 1178l-158 160l156 162l162 -162z"></glyph>
      <glyph glyph-name="uni06C6" unicode="ۆ" d="M193 -363q151 0 254 23t163 71q52 42 76.5 107t24.5 162h-184q-70 0 -142 21t-130.5 69t-95.5 125.5t-37 189.5q0 66 11.5 119.5t29 95.5t38.5 73t41 53q55 55 126 85t152 30q71 0 133 -22t111 -66q135 -126 135 -395v-378q0 -142 -41.5 -244.5t-128.5 -171.5 q-88 -69 -218.5 -102.5t-317.5 -33.5v189zM520 672q-99 0 -154 -70t-55 -197q0 -129 78 -179q19 -12 39 -19.5t39 -11t34.5 -5t25.5 -1.5h184v189q0 73 -11 123.5t-28 83.5t-38.5 50.5t-42.5 25.5t-40 9.5t-31 1.5zM823 1473l-225 -408h-127l-228 408h160l129 -264l133 264 h158z"></glyph>
      <glyph glyph-name="uni06CE" unicode="ێ" d="M933 -361q100 0 173.5 17.5t121.5 55.5t71 99t23 148q-96 25 -188 50q-39 10 -82 21.5t-85.5 23t-83 21.5t-74.5 19q-44 107 -44 211q0 6 1.5 64t42.5 153t116 170.5t173 120.5t214 55q23 2 47 2q94 0 193 -29l-47 -181q-68 21 -138 20.5t-134.5 -20t-119.5 -56.5 t-93.5 -88.5t-55.5 -115.5q-12 -42 -12 -87q0 -26 4 -52l383 -95q80 -22 120 -72t40 -122q0 -131 -31 -229.5t-99 -163.5t-175.5 -98t-260.5 -33h-221q-76 0 -147 19t-134 53t-116 82t-93 106q-47 76 -71 167t-24 192q0 125 39.5 269.5t115.5 305.5q45 -21 84 -40.5 t82 -40.5q-132 -282 -132 -489q0 -74 18 -141t50 -121q51 -80 138 -125.5t190 -45.5h221zM906 1222l-225 -408h-127l-228 408h160l129 -264l133 264h158z"></glyph>
      <glyph glyph-name="uni060D" unicode="؍" d="M662 0h-111q-51 0 -96 -24t-84 -75.5t-73 -132t-62 -192.5l-152 37q75 284 189.5 430t275.5 146h113v-189z"></glyph>
      <glyph glyph-name="patah.wide" d="M0 287v162h700v-162h-700z"></glyph>
      <glyph glyph-name="uniFD3E" unicode="﴾" d="M81 561q0 266 80 496t227 405l126 -85q-69 -104 -118 -199t-80.5 -191t-46 -199.5t-14.5 -225.5q0 -101 16.5 -207.5t48.5 -210t78.5 -199.5t106.5 -175l-117 -94q-148 171 -227.5 396.5t-79.5 488.5z"></glyph>
      <glyph glyph-name="uniFD3F" unicode="﴿" d="M535 561q0 -266 -77.5 -491t-224.5 -394l-125 79q61 82 107 179.5t76.5 202t45.5 213t15 213.5q0 122 -12.5 224t-41 195.5t-74 186t-111.5 194.5l120 99q146 -174 224 -403t78 -498z"></glyph>
      <glyph glyph-name="hah_alt.isol" d="M1369 604q-2 -1 -38 -12.5t-113.5 -38t-201 -70t-300.5 -109.5q-111 -41 -188 -77.5t-126.5 -72t-75.5 -72t-36 -76.5q-8 -32 -8 -67q0 -10 1.5 -39t8.5 -86q15 -117 53 -198.5t98 -131.5t141 -72.5t182 -22.5h502v-189h-502q-143 0 -256.5 33t-196.5 104t-135 182.5 t-73 269.5q-9 71 -9 133q0 76 20 161t90 162.5t182 132t263 102.5l462 150q-97 39 -194 74t-178.5 61.5t-139.5 43t-77 19.5q-17 0 -35.5 -3t-36.5 -18t-35 -46.5t-32 -88.5l-183 48q77 296 324 296q7 0 16.5 -0.5t29 -5t50.5 -14t81 -26.5t121 -43.5t170 -65.5l368 -150z "></glyph>
      <glyph glyph-name="hah_alt.fina" d="M1169 474q1 -82 11 -135q11 -57 32 -90t52 -46.5t71 -13.5h253v-189h-253q-63 0 -124.5 21t-110.5 69.5t-79 127.5q-31 78 -31 194q-124 -44 -301 -110q-111 -41 -188 -77.5t-126.5 -72t-75.5 -72t-36 -76.5q-8 -32 -8 -67q0 -10 1.5 -39t8.5 -86q15 -117 53 -198.5 t98 -131.5t141 -72.5t182 -22.5h502v-189h-502q-143 0 -256.5 33t-196.5 104t-135 182.5t-73 269.5q-9 71 -9 133q0 76 20 161t90 162.5t182 132t263 102.5l462 150q-97 39 -194 74t-178.5 61.5t-139.5 43t-77 19.5q-17 0 -35.5 -3t-36.5 -18t-35 -46.5t-32 -88.5l-183 48 q77 296 324 296q7 0 16.5 -0.5t29 -5t50.5 -14t81 -26.5t121 -43.5t170 -65.5l368 -150l7 -177q-2 -1 -38 -12.5t-113 -37.5z"></glyph>
      <glyph glyph-name="sarya" d="M121 1762q43 0 92 -13l-29 -109q-33 9 -62 9q-53 0 -87 -28q-37 -32 -46 -90q57 -9 90 -15t53 -11q17 -4 28 -8.5t19 -9.5q30 -21 30 -58q0 -9 -0.5 -23.5t-3.5 -31.5t-10 -36.5t-20 -37.5q-59 -85 -204 -85h-110v113h110q36 0 59.5 6t37 16t19.5 22.5t8 25.5 q-25 5 -69 12.5t-103 17.5l-43 7l-4 44q-1 12 -1 24q0 56 20.5 110.5t67.5 93.5q24 21 62.5 38t95.5 17z"></glyph>
      <glyph glyph-name="diagonal" d="M99 1335l759 327l42 -90l-812 -352z"></glyph>
      <glyph glyph-name="uni25CC" unicode="◌" d="M980 918q0 -50 -48 -50q-52 0 -52 50t52 50q48 0 48 -50zM832 1016q0 -49 -48 -49q-52 0 -52 49q0 51 52 51q48 0 48 -51zM1079 770q0 -51 -51 -51q-49 0 -49 51q0 49 51 49q49 0 49 -49zM1115 596q0 -50 -48 -50q-52 0 -52 50t52 50q48 0 48 -50zM658 1053 q0 -51 -50 -51t-50 51q0 49 50 49t50 -49zM485 1016q0 -49 -51 -49q-49 0 -49 49q0 51 49 51q51 0 51 -51zM1079 422q0 -49 -51 -49q-49 0 -49 49q0 51 49 51q51 0 51 -51zM337 918q0 -50 -50 -50t-50 47q0 53 50 53t50 -50zM980 272q0 -49 -48 -49q-52 0 -52 49q0 51 52 51 q48 0 48 -51zM832 174q0 -48 -48 -48q-52 0 -52 48q0 52 52 52q48 0 48 -52zM238 770q0 -51 -48 -51q-52 0 -52 51q0 49 50 49t50 -49zM202 592q0 -46 -48 -46q-52 0 -52 50t52 50q48 0 48 -46v-8zM658 141q0 -51 -50 -51t-50 51q0 49 50 49t50 -49zM238 422q0 -49 -50 -49 t-50 49q0 51 50 51t50 -51zM485 178q0 -52 -51 -52q-49 0 -49 48q0 52 49 52q51 0 51 -48zM337 272q0 -49 -50 -49t-50 49q0 51 50 51t50 -51z"></glyph>
      <glyph glyph-name="ZWSP" unicode="​"></glyph>
      <glyph glyph-name="uni200C" unicode="‌" d="M36 1667v-1484h-72v1484h72z"></glyph>
      <glyph glyph-name="uni200D" unicode="‍" d="M36 183h-72v1185l-134 -136l-49 49l171 169l-171 168l49 49l170 -171l170 171l49 -49l-171 -168l171 -169l-49 -49l-134 136v-1185z"></glyph>
      <glyph glyph-name="uni200E" unicode="‎" d="M430 1452l-217 -214l-49 49l137 130h-266v-1234h-71v1305h337l-137 130l49 49z"></glyph>
      <glyph glyph-name="uni200F" unicode="‏" d="M35 183h-71v1234h-266l137 -130l-49 -49l-217 214l217 215l49 -49l-137 -130h337v-1305z"></glyph>
      <glyph glyph-name="thin_hairSpace" unicode=" "></glyph>
      <glyph glyph-name="thin_hairSpace" unicode=" "></glyph>
      <glyph glyph-name="word_joiner" unicode="⁠"></glyph>
      <glyph glyph-name="line_seperator" unicode=" "></glyph>
      <glyph glyph-name="paragraph_seperator" unicode=" "></glyph>
      <glyph glyph-name="exclam" unicode="!" d="M373 371h-180l-14 1122h209zM290 -158l-155 158l162 161l156 -161z"></glyph>
      <glyph glyph-name="quotedbl" unicode="&quot;" d="M298 1504l-33 -385h-119l1 531h151v-146zM588 1504l-33 -385h-119l1 531h151v-146z"></glyph>
      <glyph glyph-name="numbersign" unicode="#" d="M822 440h-284l-86 -440h-153l86 440h-257v148h285l74 380h-278v149h307l88 447h153l-88 -447h284l88 447h155l-88 -447h219v-149h-248l-75 -380h242v-148h-270l-85 -440h-155zM566 588h284l74 380h-284z"></glyph>
      <glyph glyph-name="dollar" unicode="$" d="M920 403q0 99 -69.5 166.5t-233.5 122.5q-229 70 -334 182t-105 285q0 176 102.5 289t282.5 134v236h160v-237q180 -24 280.5 -151t100.5 -347h-197q0 151 -72 240.5t-195 89.5q-128 0 -195.5 -66.5t-67.5 -184.5q0 -109 71.5 -174t235.5 -118.5t255.5 -117t135 -148.5 t43.5 -199q0 -182 -109 -292.5t-305 -130.5v-205h-159v205q-200 18 -313.5 142t-113.5 337h199q0 -149 78.5 -230t222.5 -81q140 0 221 68t81 185z"></glyph>
      <glyph glyph-name="percent" unicode="%" d="M113 1263q0 141 89.5 232.5t230.5 91.5q143 0 231.5 -92t88.5 -238v-76q0 -142 -89.5 -232t-228.5 -90q-140 0 -231 90t-91 239v75zM261 1181q0 -84 47.5 -138.5t126.5 -54.5q76 0 123 53t47 144v78q0 84 -46.5 139t-125.5 55q-80 0 -126 -55t-46 -143v-78zM874 383 q0 141 90 232t231 91q140 0 230.5 -90.5t90.5 -239.5v-76q0 -141 -90 -232t-229 -91q-140 0 -231.5 90t-91.5 239v77zM1023 300q0 -85 47 -139.5t127 -54.5q77 0 123 53.5t46 144.5v79q0 85 -46.5 139t-124.5 54q-77 0 -124.5 -53.5t-47.5 -143.5v-79zM480 118l-113 71 l764 1223l113 -71z"></glyph>
      <glyph glyph-name="ampersand" unicode="&amp;" d="M108 420q0 113 63 207.5t240 220.5q-104 126 -139.5 203.5t-35.5 153.5q0 179 105.5 280t285.5 101q161 0 266.5 -94t105.5 -237q0 -95 -48 -175t-167 -168l-115 -85l348 -416q73 140 73 311h180q0 -274 -132 -455l223 -267h-238l-105 124q-79 -71 -186 -108t-218 -37 q-228 0 -367 121t-139 320zM614 141q158 0 289 120l-381 457l-35 -26q-180 -132 -180 -272q0 -127 82.5 -203t224.5 -76zM435 1212q0 -103 127 -258l127 89q73 52 99.5 98.5t26.5 113.5q0 72 -53.5 119.5t-135.5 47.5q-88 0 -139.5 -59.5t-51.5 -150.5z"></glyph>
      <glyph glyph-name="quotesingle" unicode="'" d="M272 1531l-23 -396h-138l1 515h160v-119z"></glyph>
      <glyph glyph-name="parenleft" unicode="(" d="M589 1583l-15 -19q-15 -20 -39 -56t-55 -87t-62 -115q-29 -58 -58.5 -132t-54 -161t-40 -185t-15.5 -204q0 -136 25 -258.5t62 -228t80.5 -191t81.5 -146t63 -94t26 -34.5l-127 -118q-2 2 -18.5 23.5t-43.5 60.5t-61 94.5t-69 126.5q-41 83 -73.5 167t-56.5 170 q-59 216 -59 428t59 430q24 87 56.5 171.5t73.5 167.5q35 71 69 127t61 96t43.5 61.5t18.5 23.5z"></glyph>
      <glyph glyph-name="parenright" unicode=")" d="M120 1583l128 118q2 -2 18.5 -23.5t43.5 -61.5t61 -96t69 -127q41 -83 73.5 -167.5t56.5 -171.5q59 -218 59 -430t-59 -428q-24 -86 -56.5 -170t-73.5 -167q-35 -71 -69 -126.5t-61 -94.5t-43.5 -60.5t-18.5 -23.5l-127 118q1 1 26 34.5t63 94t81.5 146t80.5 191t62 228 t25 258.5q0 106 -15.5 204t-40 185t-54 161t-58.5 132q-31 64 -62 115t-55 87t-39 56z"></glyph>
      <glyph glyph-name="asterisk" unicode="*" d="M354 1056l-324 97l49 162l325 -120l-10 369h165l-11 -375l319 118l49 -163l-329 -98l212 -291l-133 -101l-200 310l-193 -302l-134 97z"></glyph>
      <glyph glyph-name="plus" unicode="+" d="M720 839h436v-188h-436v-494h-200v494h-436v188h436v457h200v-457z"></glyph>
      <glyph glyph-name="comma" unicode="," d="M144 -312l-113 78q101 141 105 290v179h195v-156q0 -108 -53 -216.5t-134 -174.5z"></glyph>
      <glyph glyph-name="hyphen" unicode="-" d="M564 583h-524v163h524v-163z"></glyph>
      <glyph glyph-name="period" unicode="." d="M155 104q0 52 30.5 86.5t91.5 34.5t93 -34.5t32 -86.5q0 -49 -32 -82.5t-93 -33.5t-91.5 33.5t-30.5 82.5z"></glyph>
      <glyph glyph-name="slash" unicode="/" d="M190 -134h-171l653 1698h170z"></glyph>
      <glyph glyph-name="zero" unicode="0" d="M1111 667q0 -349 -119.5 -518.5t-372.5 -169.5q-251 0 -371 165.5t-124 495.5v266q0 344 119 512t374 168q252 0 371.5 -162t122.5 -499v-258zM912 939q0 252 -71 367.5t-224 115.5t-223 -115t-72 -353v-318q0 -254 73.5 -374.5t223.5 -120.5q147 0 218.5 113.5 t74.5 358.5v326z"></glyph>
      <glyph glyph-name="one" unicode="1" d="M783 0h-200v1325l-400 -148v181l569 214h31v-1572z"></glyph>
      <glyph glyph-name="two" unicode="2" d="M1155 0h-1025v143l541 601q121 137 166.5 222.5t45.5 176.5q0 122 -74 200.5t-198 78.5q-148 0 -230 -84t-82 -235h-199q0 216 139 349.5t372 133.5q218 0 345 -114.5t127 -304.5q0 -231 -295 -550l-418 -455h785v-162z"></glyph>
      <glyph glyph-name="three" unicode="3" d="M419 879h149q141 2 221.5 74t80.5 194q0 275 -274 275q-129 0 -205.5 -73.5t-76.5 -194.5h-199q0 186 136 309t345 123q221 0 347 -117.5t126 -325.5q0 -102 -66 -197.5t-180 -143.5q129 -40 199 -134.5t70 -231.5q0 -210 -137.5 -333.5t-357.5 -123.5t-358 119t-138 315 h200q0 -124 80.5 -198t215.5 -74q144 0 220.5 75t76.5 216q0 136 -84 209t-242 76h-149v162z"></glyph>
      <glyph glyph-name="four" unicode="4" d="M969 525h217v-162h-217v-363h-200v363h-712v117l700 1084h212v-1039zM283 525h486v767l-23 -43z"></glyph>
      <glyph glyph-name="five" unicode="5" d="M221 784l80 780h801v-184h-633l-47 -426q115 68 261 68q214 0 339.5 -141.5t125.5 -382.5t-130.5 -380t-364.5 -139q-207 0 -338 114.5t-150 317.5h188q19 -134 96 -202t204 -68q139 0 218 94.5t79 260.5q0 157 -85.5 252t-227.5 95q-130 0 -204 -57l-53 -43z"></glyph>
      <glyph glyph-name="six" unicode="6" d="M910 1565v-169h-37q-232 -4 -369.5 -137t-158.5 -375q123 142 337 142q204 0 326 -144t122 -372q0 -241 -131.5 -386t-352.5 -145q-225 0 -364.5 172t-139.5 444v76q0 432 184 660.5t548 233.5h36zM649 860q-102 0 -188 -61t-119 -153v-73q0 -194 87 -312t217 -118 q134 0 210.5 99t76.5 259q0 161 -77.5 260t-206.5 99z"></glyph>
      <glyph glyph-name="seven" unicode="7" d="M1140 1452l-648 -1452h-208l645 1401h-846v163h1057v-112z"></glyph>
      <glyph glyph-name="eight" unicode="8" d="M1079 1156q0 -117 -62 -208.5t-167 -142.5q122 -53 193.5 -154t71.5 -229q0 -203 -137 -323t-360 -120q-226 0 -362 120.5t-136 322.5q0 127 69.5 229t191.5 155q-104 51 -164 142.5t-60 207.5q0 198 126.5 314t334.5 116q206 0 333.5 -116t127.5 -314zM916 426 q0 132 -83 214.5t-217 82.5q-135 0 -216 -81.5t-81 -214.5q0 -134 79 -210t220 -76q139 0 218.5 76.5t79.5 208.5zM618 1422q-117 0 -189.5 -72.5t-72.5 -196.5q0 -120 71 -193.5t191 -73.5q119 0 190.5 73.5t71.5 193.5q0 119 -74 194t-188 75z"></glyph>
      <glyph glyph-name="nine" unicode="9" d="M892 688q-63 -75 -149.5 -120t-189.5 -45q-135 0 -235.5 66.5t-155.5 187.5t-55 267q0 157 60 282.5t169.5 192.5t255.5 67q232 0 365.5 -173.5t133.5 -473.5v-58q0 -457 -180.5 -667t-544.5 -215h-38v168h42q246 4 378 128t144 393zM585 688q100 0 184.5 61t123.5 151 v80q0 195 -85 317.5t-215 122.5q-131 0 -210.5 -100.5t-79.5 -264.5q0 -160 77 -263.5t205 -103.5z"></glyph>
      <glyph glyph-name="colon" unicode=":" d="M144 104q0 52 30.5 86.5t92.5 34.5q61 0 92.5 -34.5t31.5 -86.5q0 -49 -31.5 -82.5t-92.5 -33.5q-62 0 -92.5 33.5t-30.5 82.5zM145 913q0 51 30.5 85.5t92.5 34.5q61 0 92.5 -34.5t31.5 -85.5q0 -50 -31.5 -83t-92.5 -33q-62 0 -92.5 33t-30.5 83z"></glyph>
      <glyph glyph-name="semicolon" unicode=";" d="M157 -312l-113 78q101 141 105 290v179h195v-156q0 -108 -53.5 -216.5t-133.5 -174.5zM125 913q0 51 30.5 85.5t92.5 34.5q61 0 92.5 -34.5t31.5 -85.5q0 -50 -31.5 -83t-92.5 -33q-62 0 -92.5 33t-30.5 83z"></glyph>
      <glyph glyph-name="less" unicode="&lt;" d="M284 692l672 -272v-211l-879 408v156l879 406v-210z"></glyph>
      <glyph glyph-name="equal" unicode="=" d="M1059 874h-896v173h896v-173zM1059 429h-896v171h896v-171z"></glyph>
      <glyph glyph-name="greater" unicode="&gt;" d="M854 698l-710 278v205l917 -406v-157l-917 -407v206z"></glyph>
      <glyph glyph-name="question" unicode="?" d="M383 440q3 128 29.5 202.5t109.5 164.5l141 145q90 102 90 219q0 113 -59 177t-172 64q-109 0 -176 -58t-67 -156h-198q2 174 124 281t317 107q203 0 316.5 -109.5t113.5 -299.5q0 -188 -174 -370l-117 -116q-79 -87 -79 -251h-199zM375 100q0 48 29.5 81t87.5 33t88 -33 t30 -81t-30 -80t-88 -32t-87.5 32t-29.5 80z"></glyph>
      <glyph glyph-name="at" unicode="@" d="M1867 539q-13 -260 -129 -410t-310 -150q-201 0 -258 180q-58 -91 -132.5 -135.5t-154.5 -44.5q-153 0 -231 125q-62 99 -62 258q0 41 4 86q16 177 81 316t167.5 218.5t215.5 79.5q87 0 156 -23t155 -90l-56 -596q-2 -29 -2 -55q0 -193 139 -193q122 0 197 120.5 t81 313.5q2 45 2 87q0 354 -166 561.5t-525 207.5q-216 0 -383.5 -106.5t-264.5 -308.5t-108 -467q-2 -38 -2 -75q0 -219 71.5 -401t230 -285.5t383.5 -103.5q96 0 193.5 23.5t161.5 61.5l40 -124q-67 -42 -177 -69t-223 -27q-268 0 -461.5 121t-289.5 348q-85 200 -85 460 q0 35 2 71q13 296 132 531.5t323 364t461 128.5q268 0 459 -120t285 -347q82 -199 82 -458q0 -36 -2 -73zM765 448q-4 -39 -4 -73q0 -101 38 -172t132 -71q65 0 124.5 55t98.5 157l1 9l49 541q-60 31 -129 31q-125 0 -207.5 -128t-102.5 -349z"></glyph>
      <glyph glyph-name="A" unicode="A" d="M1045 408h-655l-147 -408h-213l597 1564h181l598 -1564h-211zM452 578h532l-266 731z"></glyph>
      <glyph glyph-name="B" unicode="B" d="M182 0v1564h511q254 0 382.5 -105t128.5 -312q0 -109 -62 -193.5t-170 -130.5q127 -36 200.5 -135t73.5 -237q0 -210 -136.5 -330.5t-385.5 -120.5h-542zM388 732v-563h340q144 0 227.5 74.5t83.5 205.5q0 283 -307 283h-344zM388 897h311q136 0 217 67.5t81 183.5 q0 129 -75.5 187.5t-228.5 58.5h-305v-497z"></glyph>
      <glyph glyph-name="C" unicode="C" d="M1332 496q-29 -248 -183 -382.5t-410 -134.5q-277 0 -444 198.5t-167 531.5v150q0 218 78 383.5t220.5 254.5t330.5 89q250 0 400 -139.5t175 -385.5h-207q-27 187 -117 271t-251 84q-197 0 -309.5 -146t-112.5 -416v-151q0 -255 106.5 -405.5t297.5 -150.5q172 0 264 78 t122 271h207z"></glyph>
      <glyph glyph-name="D" unicode="D" d="M182 0v1564h441q204 0 361 -90t242.5 -256.5t86.5 -382.5v-100q0 -222 -85.5 -388.5t-244 -255.5t-369.5 -91h-432zM388 1394v-1225h217q238 0 371 148t133 422v91q0 267 -125.5 414.5t-355.5 149.5h-240z"></glyph>
      <glyph glyph-name="E" unicode="E" d="M1066 723h-678v-554h787v-169h-993v1564h982v-170h-776v-502h678v-169z"></glyph>
      <glyph glyph-name="F" unicode="F" d="M1044 691h-656v-691h-206v1564h968v-170h-762v-535h656v-168z"></glyph>
      <glyph glyph-name="G" unicode="G" d="M1336 205q-79 -114 -221.5 -170t-331.5 -56q-191 0 -339.5 89.5t-229.5 255t-83 383.5v136q0 354 165 548.5t463 194.5q245 0 394.5 -125.5t182.5 -355.5h-206q-58 311 -369 311q-208 0 -315 -145.5t-108 -421.5v-128q0 -263 120.5 -418.5t325.5 -155.5q116 0 203 26 t144 87v351h-362v168h567v-574z"></glyph>
      <glyph glyph-name="H" unicode="H" d="M1384 0h-208v723h-788v-723h-206v1564h206v-672h788v672h208v-1564z"></glyph>
      <glyph glyph-name="I" unicode="I" d="M403 0h-206v1564h206v-1564z"></glyph>
      <glyph glyph-name="J" unicode="J" d="M837 1564h207v-1107q0 -225 -134.5 -351.5t-359.5 -126.5q-233 0 -363 119t-130 334h206q0 -134 73.5 -209.5t213.5 -75.5q128 0 207 80.5t80 225.5v1111z"></glyph>
      <glyph glyph-name="K" unicode="K" d="M579 727l-191 -198v-529h-206v1564h206v-773l695 773h249l-615 -691l663 -873h-247z"></glyph>
      <glyph glyph-name="L" unicode="L" d="M389 169h741v-169h-948v1564h207v-1395z"></glyph>
      <glyph glyph-name="M" unicode="M" d="M448 1564l511 -1276l512 1276h267v-1564h-206v609l19 658l-513 -1267h-158l-513 1263l21 -654v-609h-206v1564h266z"></glyph>
      <glyph glyph-name="N" unicode="N" d="M1384 0h-208l-787 1205v-1205h-207v1564h207l789 -1211v1211h206v-1564z"></glyph>
      <glyph glyph-name="O" unicode="O" d="M1385 732q0 -230 -77.5 -401.5t-219.5 -261.5t-331 -90q-184 0 -327 90.5t-222 258.5t-81 390v112q0 226 78.5 399t221.5 265t328 92q188 0 331.5 -91t221 -263.5t77.5 -401.5v-98zM1179 833q0 278 -111.5 426.5t-312.5 148.5q-195 0 -307.5 -148.5t-115.5 -413.5v-114 q0 -270 113.5 -424t311.5 -154q200 0 309.5 145.5t112.5 417.5v116z"></glyph>
      <glyph glyph-name="P" unicode="P" d="M388 612v-612h-206v1564h576q257 0 402.5 -131t145.5 -347q0 -228 -142 -351t-408 -123h-368zM388 781h370q166 0 254 78t88 225q0 140 -88 223.5t-242 86.5h-382v-613z"></glyph>
      <glyph glyph-name="Q" unicode="Q" d="M1376 732q0 -227 -72 -391t-202 -256l279 -219l-140 -130l-330 262q-77 -19 -163 -19q-185 0 -328 90.5t-222 258.5t-81 390v112q0 226 78.5 399t222 265t328.5 92q189 0 332 -91.5t220.5 -263t77.5 -400.5v-99zM1170 833q0 276 -110 425.5t-314 149.5 q-195 0 -307 -148.5t-116 -413.5v-114q0 -269 112.5 -423.5t312.5 -154.5q199 0 309 145.5t113 417.5v116z"></glyph>
      <glyph glyph-name="R" unicode="R" d="M755 633h-367v-633h-208v1564h518q265 0 407 -120.5t142 -349.5q0 -147 -79 -255.5t-219 -161.5l367 -664v-13h-221zM388 801h317q153 0 244 79.5t91 213.5q0 145 -86.5 222t-249.5 78h-316v-593z"></glyph>
      <glyph glyph-name="S" unicode="S" d="M642 697q-265 76 -386 187.5t-121 274.5q0 185 148 306t384 121q161 0 287.5 -62.5t195.5 -172t69 -239.5h-207q0 142 -90.5 223t-254.5 81q-152 0 -237.5 -67t-85.5 -187q0 -95 81 -161t276 -121t305 -121t163 -154t53 -208q0 -190 -148 -304t-396 -114 q-161 0 -301 61.5t-215.5 169t-75.5 243.5h207q0 -141 105 -223.5t280 -82.5q163 0 250 66.5t87 181.5t-80.5 178t-292.5 124z"></glyph>
      <glyph glyph-name="T" unicode="T" d="M1262 1394h-503v-1394h-205v1394h-501v170h1209v-170z"></glyph>
      <glyph glyph-name="U" unicode="U" d="M1283 1564v-1063q-1 -222 -139.5 -362.5t-374.5 -157.5l-55 -2q-256 0 -408.5 138.5t-155.5 380.5v1066h204v-1059q0 -170 93.5 -264t266.5 -94q175 0 268 93.5t93 263.5v1060h208z"></glyph>
      <glyph glyph-name="V" unicode="V" d="M699 274l447 1290h226l-580 -1564h-183l-579 1564h225z"></glyph>
      <glyph glyph-name="W" unicode="W" d="M519 493l30 -206l44 186l309 1091h174l302 -1091l43 -189l33 210l243 1070h208l-380 -1564h-188l-322 1140l-25 119l-24 -119l-334 -1140h-188l-378 1564h206z"></glyph>
      <glyph glyph-name="X" unicode="X" d="M692 965l375 599h242l-494 -776l506 -788h-245l-384 610l-387 -610h-244l507 788l-495 776h242z"></glyph>
      <glyph glyph-name="Y" unicode="Y" d="M658 779l409 785h234l-539 -981v-583h-207v583l-539 981h236z"></glyph>
      <glyph glyph-name="Z" unicode="Z" d="M336 169h895v-169h-1139v155l858 1239h-844v170h1091v-151z"></glyph>
      <glyph glyph-name="bracketleft" unicode="[" d="M562 1624h-205v-1796h205v-163h-405v2123h405v-164z"></glyph>
      <glyph glyph-name="backslash" unicode="\" d="M43 1564h189l653 -1698h-189z"></glyph>
      <glyph glyph-name="bracketright" unicode="]" d="M10 1788h406v-2123h-406v163h207v1796h-207v164z"></glyph>
      <glyph glyph-name="asciicircum" unicode="^" d="M458 1301l-204 -518h-185l321 781h136l320 -781h-183z"></glyph>
      <glyph glyph-name="underscore" unicode="_" d="M988 -162h-984v162h984v-162z"></glyph>
      <glyph glyph-name="grave" unicode="`" d="M509 1332h-171l-277 316h240z"></glyph>
      <glyph glyph-name="a" unicode="a" d="M868 0q-17 34 -28 122q-139 -143 -331 -143q-172 0 -282 97t-110 246q0 182 138 282.5t388 100.5h194v91q0 104 -62.5 166t-183.5 62q-107 0 -178.5 -54t-71.5 -130h-200q0 87 61.5 168t167.5 128.5t233 47.5q201 0 314.5 -100.5t118.5 -276.5v-535q0 -160 40 -255v-17 h-208zM538 151q94 0 177.5 48.5t121.5 125.5v239h-156q-365 0 -365 -214q0 -93 62 -146t160 -53z"></glyph>
      <glyph glyph-name="b" unicode="b" d="M1134 568q0 -266 -122.5 -427.5t-328.5 -161.5q-220 0 -340 155l-10 -134h-183v1650h199v-616q120 150 332 150t332.5 -160t120.5 -439v-17zM936 591q0 203 -78.5 313.5t-225.5 110.5q-197 0 -283 -182v-503q91 -183 285 -183q143 0 222.5 110.5t79.5 333.5z"></glyph>
      <glyph glyph-name="c" unicode="c" d="M617 141q106 0 185.5 64.5t88.5 160.5h188q-6 -100 -69.5 -190t-169 -143.5t-223.5 -53.5q-238 0 -378 158t-140 433v34q0 169 62 301.5t179 205.5t276 73q195 0 324.5 -117t138.5 -304h-188q-9 112 -86 185t-189 73q-152 0 -235 -109.5t-83 -315.5v-37 q0 -201 82.5 -309.5t236.5 -108.5z"></glyph>
      <glyph glyph-name="d" unicode="d" d="M102 591q0 267 127 430t332 163q204 0 323 -140v606h199v-1650h-183l-9 125q-120 -146 -332 -146q-202 0 -329.5 165t-127.5 432v15zM301 568q0 -197 81.5 -309t225.5 -112q189 0 276 170v534q-89 164 -274 164q-146 0 -227.5 -112.5t-81.5 -334.5z"></glyph>
      <glyph glyph-name="e" unicode="e" d="M633 -21q-237 0 -385 155t-148 415v36q0 173 66 309t184.5 213t257.5 77q227 0 352.5 -149.5t125.5 -427.5v-83h-787q4 -172 100 -277.5t244 -105.5q106 0 179 43t128 114l121 -95q-146 -224 -438 -224zM608 1021q-120 0 -202 -88t-101 -245h582v15q-8 151 -81 234.5 t-198 83.5z"></glyph>
      <glyph glyph-name="f" unicode="f" d="M248 0v1009h-184v153h184v120q0 186 100 288.5t283 102.5q68 0 136 -19l-11 -161q-50 10 -107 10q-97 0 -149.5 -56.5t-52.5 -161.5v-123h248v-153h-248v-1009h-199z"></glyph>
      <glyph glyph-name="g" unicode="g" d="M103 591q0 272 125.5 432.5t333.5 160.5q213 0 332 -151l9 129h182v-1134q0 -226 -134 -356t-359 -130q-126 0 -246 54t-184 147l103 120q128 -158 313 -158q145 0 226 81.5t81 229.5v100q-119 -137 -325 -137q-204 0 -330.5 164t-126.5 448zM303 568q0 -196 80.5 -308.5 t225.5 -112.5q188 0 276 171v531q-91 166 -274 166q-145 0 -226.5 -112.5t-81.5 -334.5z"></glyph>
      <glyph glyph-name="h" unicode="h" d="M349 1022q132 162 344 162q368 0 372 -416v-768h-199v769q-1 126 -57.5 186t-175.5 60q-97 0 -170 -51.5t-114 -135.5v-828h-199v1650h199v-628z"></glyph>
      <glyph glyph-name="i" unicode="i" d="M366 0h-198v1162h198v-1162zM151 1471q0 48 30 81.5t88 33.5t88 -33.5t30 -81.5q0 -49 -30 -81t-88 -32t-88 32t-30 81z"></glyph>
      <glyph glyph-name="j" unicode="j" d="M356 1162v-1296q0 -335 -304 -335q-66 0 -122 19v159q35 -9 90 -9q67 0 102 36t35 125v1301h199zM136 1471q0 47 30 81t86 34q58 0 88.5 -33.5t30.5 -81.5q0 -49 -30.5 -81t-88.5 -32t-87 32t-29 81z"></glyph>
      <glyph glyph-name="k" unicode="k" d="M475 538l-125 -130v-408h-199v1650h199v-998l107 128l362 382h241l-452 -485l505 -677h-233z"></glyph>
      <glyph glyph-name="l" unicode="l" d="M366 0h-198v1650h198v-1650z"></glyph>
      <glyph glyph-name="m" unicode="m" d="M337 1162l6 -129q128 151 345 151q243 0 331 -187q58 84 151 135.5t220 51.5q382 0 389 -405v-779h-199v767q0 125 -57 186.5t-191 61.5q-111 0 -184 -66t-85 -178v-771h-199v762q0 253 -248 253q-196 0 -268 -166v-849h-199v1162h188z"></glyph>
      <glyph glyph-name="n" unicode="n" d="M338 1162l7 -146q133 168 348 168q368 0 372 -416v-768h-199v769q-1 126 -57.5 186t-175.5 60q-97 0 -170 -51.5t-114 -135.5v-828h-199v1162h188z"></glyph>
      <glyph glyph-name="o" unicode="o" d="M98 592q0 171 67 307.5t187 210.5t273 74q238 0 384.5 -164.5t146.5 -437.5v-14q0 -169 -65 -304t-186 -210t-278 -75q-236 0 -382.5 164t-146.5 435v14zM298 568q0 -193 89.5 -310t239.5 -117q152 0 241 118.5t89 332.5q0 191 -90.5 310t-241.5 119q-147 0 -237 -117.5 t-90 -335.5z"></glyph>
      <glyph glyph-name="p" unicode="p" d="M1132 568q0 -265 -121.5 -427t-328.5 -162q-211 0 -333 134v-560h-199v1609h182l10 -129q121 151 337 151q209 0 331 -158t122 -439v-19zM933 591q0 196 -83.5 310t-229.5 114q-181 0 -271 -160v-555q89 -159 273 -159q143 0 227 113t84 337z"></glyph>
      <glyph glyph-name="q" unicode="q" d="M102 591q0 274 125.5 433.5t337.5 159.5q206 0 326 -139l8 117h183v-1609h-199v554q-120 -128 -320 -128q-211 0 -336 163.5t-125 434.5v14zM301 568q0 -200 84 -313.5t227 -113.5q178 0 271 157v569q-95 154 -269 154q-143 0 -228 -114.5t-85 -338.5z"></glyph>
      <glyph glyph-name="r" unicode="r" d="M712 984q-45 8 -98 8q-195 0 -265 -167v-825h-199v1162h194l3 -134q98 156 277 156q58 0 88 -15v-185z"></glyph>
      <glyph glyph-name="s" unicode="s" d="M827 308q0 81 -60.5 125.5t-211.5 76.5t-239.5 77.5t-131 107.5t-42.5 148q0 143 120.5 242t308.5 99q198 0 321 -102t123 -261h-200q0 81 -69 140.5t-175 59.5q-108 0 -169 -47.5t-61 -123.5q0 -72 56.5 -108.5t205.5 -70t241.5 -79.5t137 -111t44.5 -159 q0 -155 -124.5 -249t-323.5 -94q-140 0 -247.5 49t-168 138t-60.5 192h199q5 -100 79.5 -158.5t197.5 -58.5q113 0 181 45.5t68 121.5z"></glyph>
      <glyph glyph-name="t" unicode="t" d="M420 1444v-282h217v-153h-217v-721q0 -70 29 -105t99 -35q34 0 94 13v-161q-78 -21 -152 -21q-133 0 -201 80.5t-68 228.5v721h-211v153h211v282h199z"></glyph>
      <glyph glyph-name="u" unicode="u" d="M868 115q-116 -136 -341 -136q-185 0 -282.5 107.5t-98.5 319.5v756h199v-751q0 -264 215 -264q227 0 303 170v845h198v-1162h-189z"></glyph>
      <glyph glyph-name="v" unicode="v" d="M534 270l288 892h203l-417 -1162h-151l-422 1162h203z"></glyph>
      <glyph glyph-name="w" unicode="w" d="M1179 274l224 888h199l-339 -1162h-161l-282 881l-275 -881h-162l-337 1162h198l229 -870l270 870h160z"></glyph>
      <glyph glyph-name="x" unicode="x" d="M540 738l258 424h232l-380 -574l392 -588h-230l-268 435l-269 -435h-231l392 588l-380 574h230z"></glyph>
      <glyph glyph-name="y" unicode="y" d="M531 291l270 871h213l-467 -1341q-109 -290 -345 -290l-38 3l-74 14v161l54 -4q101 0 157.5 40.5t92.5 149.5l44 118l-414 1149h217z"></glyph>
      <glyph glyph-name="z" unicode="z" d="M337 162h680v-162h-922v146l641 852h-632v164h881v-140z"></glyph>
      <glyph glyph-name="braceleft" unicode="{" d="M679 -393q-190 54 -286.5 177t-96.5 324v214q0 261 -227 261v156q227 0 227 260v223q3 197 97 318t286 176l41 -124q-225 -72 -225 -375v-217q0 -244 -179 -339q179 -97 179 -343v-221q3 -296 225 -367z"></glyph>
      <glyph glyph-name="bar" unicode="|" d="M348 -290h-160v1854h160v-1854z"></glyph>
      <glyph glyph-name="braceright" unicode="}" d="M20 -270q218 70 226 356v236q0 248 194 339q-194 88 -194 338v218q0 303 -225 375l41 124q190 -54 286 -175t97 -320v-225q0 -257 227 -257v-156q-227 0 -227 -261v-217q0 -202 -97.5 -323t-285.5 -175z"></glyph>
      <glyph glyph-name="asciitilde" unicode="~" d="M1357 835q0 -170 -100.5 -286.5t-247.5 -116.5q-78 0 -146.5 28.5t-159.5 108t-130.5 98.5t-84.5 19q-84 0 -129 -57.5t-45 -157.5l-173 -3q0 172 98.5 283t248.5 111q81 0 156.5 -34.5t170 -121t163.5 -97.5l31 -2q81 0 132 62.5t51 164.5z"></glyph>
      <glyph glyph-name="exclamdown" unicode="¡" d="M183 735h180l14 -1122h-208zM385 1070q0 -48 -30 -81.5t-88 -33.5t-88 33.5t-30 81.5t30 80.5t88 32.5t88 -32.5t30 -80.5z"></glyph>
      <glyph glyph-name="cent" unicode="¢" d="M629 141q108 0 187.5 65t87.5 160h188q-6 -135 -112.5 -243t-260.5 -136v-250h-199v251q-192 37 -299.5 189.5t-107.5 388.5v38q0 227 108.5 380.5t298.5 188.5v243h199v-240q161 -24 264 -138t109 -275h-188q-8 112 -85 185t-190 73q-151 0 -234 -109.5t-83 -315.5v-37 q0 -201 83 -309.5t234 -108.5z"></glyph>
      <glyph glyph-name="sterling" unicode="£" d="M482 668l9 -236q0 -166 -67 -263h788l-1 -169h-1109v169h83q43 9 69.5 79.5t29.5 173.5v9l-9 237h-177v169h172l-10 279q0 214 131.5 342t346.5 128q204 0 323.5 -114t119.5 -304h-206q0 115 -68 181.5t-187 66.5q-113 0 -183 -83t-70 -217l10 -279h343v-169h-338z"></glyph>
      <glyph glyph-name="currency" unicode="¤" d="M1185 120q-171 -141 -395 -141q-223 0 -394 139l-144 -146l-139 145l149 152q-112 167 -112 384q0 221 121 397l-158 162l139 146l158 -161q170 129 380 129t381 -130l160 163l142 -147l-162 -166q118 -175 118 -393q0 -210 -110 -381l154 -155l-142 -146zM334 653 q0 -132 62 -246t167 -179.5t227 -65.5q121 0 226 66t166 179.5t61 245.5q0 131 -61 244.5t-166.5 178.5t-225.5 65q-122 0 -227 -64.5t-167 -178.5t-62 -245z"></glyph>
      <glyph glyph-name="yen" unicode="¥" d="M660 840l391 724h235l-449 -773h335v-135h-413v-177h413v-133h-413v-346h-207v346h-406v133h406v177h-406v135h336l-449 773h237z"></glyph>
      <glyph glyph-name="brokenbar" unicode="¦" d="M158 -290v850h200v-850h-200zM358 750h-200v814h200v-814z"></glyph>
      <glyph glyph-name="section" unicode="§" d="M1230 463q0 -203 -200 -294q74 -53 113 -126t39 -180q0 -181 -140 -288t-385 -107q-120 0 -228 30t-183 92q-149 121 -149 341l199 2q0 -139 97 -220t264 -81q147 0 236 62.5t89 165.5q0 96 -76.5 152.5t-300.5 122.5q-196 52 -299 111.5t-153 143t-50 202.5 q0 200 196 294q-71 53 -109.5 126t-38.5 180q0 179 143.5 286.5t382.5 107.5q249 0 388.5 -121.5t139.5 -341.5h-198q0 134 -90.5 217t-239.5 83q-153 0 -239.5 -61.5t-86.5 -166.5q0 -75 30 -118t102.5 -77.5t227 -77.5t245 -82t151.5 -91t92 -121t31 -165zM647 742 q-97 26 -178 55q-86 -20 -126 -74.5t-40 -128.5q0 -75 29 -118t100.5 -78.5t224 -79.5t199.5 -62q84 21 129 75.5t45 128.5q0 94 -74.5 152.5t-308.5 129.5z"></glyph>
      <glyph glyph-name="dieresis" unicode="¨" d="M110 1473q0 48 29.5 81t87.5 33t88 -33t30 -81q0 -49 -30 -81t-88 -32t-87.5 32t-29.5 81zM571 1471q0 48 30 81.5t88 33.5t88 -33.5t30 -81.5q0 -49 -30 -81t-88 -32t-88 32t-30 81z"></glyph>
      <glyph glyph-name="copyright" unicode="©" d="M1202 641q0 -164 -93 -250.5t-263 -86.5q-168 0 -269.5 113.5t-101.5 308.5v118q0 189 102.5 302.5t268.5 113.5q172 0 264.5 -88t92.5 -248h-157q0 106 -51 151.5t-149 45.5q-100 0 -158.5 -74t-58.5 -206v-121q0 -129 58.5 -203t158.5 -74q99 0 149 45t50 153h157z M221 783q0 -185 86 -342t234 -246.5t320 -89.5q171 0 318.5 89.5t233.5 246.5t86 342q0 183 -85 338.5t-233 245.5t-321 90q-171 0 -319.5 -89t-234 -245.5t-85.5 -339.5zM98 783q0 217 100.5 403t278 293t384.5 107q206 0 383 -107t277.5 -293t100.5 -403 q0 -212 -96.5 -396.5t-274.5 -297t-391 -112.5q-211 0 -389 111.5t-275.5 296t-97.5 398.5z"></glyph>
      <glyph glyph-name="ordfeminine" unicode="ª" d="M664 757q-13 37 -19 78q-82 -93 -220 -93q-127 0 -197 66.5t-70 177.5q0 119 89.5 183.5t274.5 64.5h116v56q0 145 -133 145q-74 0 -116.5 -29t-42.5 -84l-173 13q0 111 92.5 181t239.5 70q143 0 225.5 -77t82.5 -221v-339q0 -105 28 -192h-177zM467 889q46 0 93.5 21.5 t77.5 50.5v153h-120q-89 -1 -137 -35t-48 -89q0 -101 134 -101z"></glyph>
      <glyph glyph-name="guillemotleft" unicode="«" d="M513 1067l-8 -10q-7 -10 -19 -27.5t-27 -42.5t-30 -57q-14 -28 -29 -64t-26.5 -79t-19 -91t-7.5 -99q0 -52 7.5 -100t19 -90t26.5 -78.5t29 -64.5q15 -32 30 -56.5t27 -41.5q13 -21 26 -37l-100 -83q-3 4 -33.5 46t-67 115t-65.5 172t-29 218q0 78 14 149t35 131 t45.5 110t47 85t37 55t16.5 22zM782 963l-20 -29q-21 -28 -45 -77.5t-44 -116t-20 -143.5q0 -78 20 -144.5t44 -115t44.5 -76t20.5 -29.5l-99 -83q-3 4 -28 38.5t-54.5 93.5t-53.5 140t-24 176q0 96 24 176.5t53.5 140.5t54.5 94.5t28 37.5z"></glyph>
      <glyph glyph-name="logicalnot" unicode="¬" d="M1029 403h-200v283h-693v173h893v-456z"></glyph>
      <glyph glyph-name="softhyphen" unicode="­" d="M564 583h-524v163h524v-163z"></glyph>
      <glyph glyph-name="registered" unicode="®" d="M97 783q0 217 100.5 403t278 293t384.5 107q206 0 383 -107t277.5 -293t100.5 -403q0 -212 -96.5 -396.5t-274.5 -297t-391 -112.5q-211 0 -389 111.5t-275.5 296t-97.5 398.5zM220 783q0 -185 86 -342t234 -246.5t319 -89.5q173 0 321.5 91t232.5 246.5t84 340.5 q0 184 -84 339t-232.5 245t-321.5 90q-171 0 -319.5 -89t-234 -245.5t-85.5 -339.5zM701 703v-364h-151v912h296q165 0 255.5 -70t90.5 -205q0 -132 -137 -201q131 -54 132 -220v-65q0 -93 18 -133v-18h-155q-16 39 -16 138.5t-3 117.5q-17 103 -140 108h-190zM701 840h168 q77 2 124.5 37.5t47.5 93.5q0 79 -42 111.5t-149 32.5h-149v-275z"></glyph>
      <glyph glyph-name="macron" unicode="¯" d="M896 1410h-767v154h767v-154z"></glyph>
      <glyph glyph-name="degree" unicode="°" d="M140 1306q0 112 80 196t194 84q111 0 190 -83.5t79 -196.5q0 -114 -79 -194.5t-190 -80.5q-113 0 -193.5 80.5t-80.5 194.5zM414 1169q58 0 97.5 38t39.5 99q0 63 -39.5 103t-97.5 40q-60 0 -100 -42.5t-40 -100.5t40 -97.5t100 -39.5z"></glyph>
      <glyph glyph-name="plusminus" unicode="±" d="M697 917h391v-162h-391v-445h-179v445h-414v162h414v444h179v-444zM1042 0h-897v163h897v-163z"></glyph>
      <glyph glyph-name="twosuperior" unicode="²" d="M734 717h-644v116l323 302q117 110 117 184q0 53 -34.5 85.5t-99.5 32.5q-80 0 -118 -40.5t-38 -102.5h-169q0 123 89.5 202.5t231.5 79.5t224.5 -68.5t82.5 -186.5q0 -111 -115 -226l-90 -85l-189 -156h429v-137z"></glyph>
      <glyph glyph-name="threesuperior" unicode="³" d="M285 1208h90q79 0 118 33t39 85q0 48 -34 79t-109 31q-61 0 -101.5 -27.5t-40.5 -71.5h-169q0 106 88 172t221 66q147 0 230.5 -65t83.5 -177q0 -59 -37.5 -108t-108.5 -76q160 -44 160 -197q0 -114 -91 -181t-237 -67q-142 0 -231 67.5t-89 182.5h169q0 -48 42.5 -80.5 t114.5 -32.5q75 0 114.5 32.5t39.5 86.5q0 122 -168 124h-94v124z"></glyph>
      <glyph glyph-name="acute" unicode="´" d="M339 1648h241l-288 -316h-160z"></glyph>
      <glyph glyph-name="mu" unicode="µ" d="M364 1162v-680q1 -175 56.5 -258.5t179.5 -83.5q214 0 281 163v859h200v-1162h-180l-9 124q-100 -145 -283 -145q-158 0 -245 78v-504h-199v1609h199z"></glyph>
      <glyph glyph-name="paragraph" unicode="¶" d="M694 0v559h-90q-247 0 -389.5 136t-142.5 366q0 229 143 366t390 137h289v-1564h-200z"></glyph>
      <glyph glyph-name="periodcentered" unicode="·" d="M158 783q0 52 30.5 86t92.5 34q61 0 92.5 -34t31.5 -86q0 -50 -31.5 -84t-92.5 -34q-62 0 -92.5 34t-30.5 84z"></glyph>
      <glyph glyph-name="cedilla" unicode="¸" d="M306 0l-13 -56q165 -29 165 -186q0 -104 -86 -164.5t-240 -60.5l-7 115q84 0 131 28t47 78q0 47 -34.5 69.5t-139.5 32.5l34 144h143z"></glyph>
      <glyph glyph-name="onesuperior" unicode="¹" d="M532 724h-169v646l-232 -62v138l381 126h20v-848z"></glyph>
      <glyph glyph-name="ordmasculine" unicode="º" d="M131 1206q0 170 101 275t266 105q167 0 268 -104t101 -282v-80q0 -170 -100.5 -274.5t-265.5 -104.5q-166 0 -268 104.5t-102 281.5v79zM306 1120q0 -107 52 -168t143 -61q89 0 140 61.5t51 170.5v83q0 107 -52 168t-142 61q-87 0 -138.5 -59t-53.5 -163v-93z"></glyph>
      <glyph glyph-name="guillemotright" unicode="»" d="M536 1067l101 82q2 -2 16.5 -22t37 -55t47 -85t45.5 -110t35 -131t14 -149q0 -119 -29 -218t-65.5 -172t-67 -115t-33.5 -46l-100 83q13 16 26 37q12 17 27 41.5t30 56.5q14 28 29 64.5t26.5 78.5t19 90t7.5 100q0 51 -7.5 99t-19 91t-26.5 79t-29 64q-15 32 -30 57 t-27 42.5t-19 27.5zM267 963l99 83q3 -3 28 -37.5t54 -94.5t53 -140.5t24 -176.5q0 -95 -24 -176t-53 -140t-54 -93.5t-28 -38.5l-99 83q0 2 20.5 29.5t44.5 76t43.5 115t19.5 144.5q0 77 -19.5 143.5t-43.5 116t-45 77.5z"></glyph>
      <glyph glyph-name="onequarter" unicode="¼" d="M492 713h-169v646l-232 -61v137l382 126h19v-848zM476 127l-112 71l764 1222l112 -71zM1416 321h115v-139h-115v-182h-169v182h-403l-6 109l405 557h173v-527zM1008 321h239v311l-18 -30z"></glyph>
      <glyph glyph-name="onehalf" unicode="½" d="M429 127l-112 71l764 1222l111 -71zM487 713h-169v646l-232 -61v137l381 126h20v-848zM1591 0h-644v116l323 303q117 110 117 184q0 52 -34.5 85t-98.5 33q-81 0 -119 -41t-38 -102h-169q0 122 90 201.5t232 79.5q141 0 224 -68t83 -186q0 -112 -115 -227l-91 -85 l-189 -155h429v-138z"></glyph>
      <glyph glyph-name="threequarters" unicode="¾" d="M612 127l-111 71l763 1222l112 -71zM1515 321h115v-139h-115v-182h-169v182h-403l-6 109l405 557h173v-527zM1106 321h240v311l-18 -30zM337 1210h91q79 0 117.5 32.5t38.5 84.5q0 48 -33.5 79t-108.5 31q-62 0 -102 -27t-40 -72h-169q0 106 87.5 172t220.5 66 q148 0 231.5 -65t83.5 -177q0 -59 -37.5 -108t-108.5 -76q160 -44 160 -197q0 -114 -91.5 -181t-237.5 -67q-141 0 -230.5 67.5t-89.5 182.5h170q0 -48 42.5 -80.5t114.5 -32.5q75 0 114 32.5t39 86.5q0 122 -167 124h-95v125z"></glyph>
      <glyph glyph-name="questiondown" unicode="¿" d="M632 730q-1 -113 -23 -181.5t-74 -132t-150.5 -167t-110.5 -209.5l-2 -40q0 -117 62 -179t179 -62q108 0 175 61t67 159h199q-2 -173 -123 -283t-318 -110q-210 0 -325 108t-115 301q0 185 172 373l117 122q71 84 71 240h199zM640 1071q0 -48 -29.5 -81.5t-87.5 -33.5 t-88 33.5t-30 81.5q0 47 30 79.5t88 32.5t87.5 -32.5t29.5 -79.5z"></glyph>
      <glyph glyph-name="Agrave" unicode="À" d="M1045 408h-655l-147 -408h-213l597 1564h181l598 -1564h-211zM452 578h532l-266 731zM836 1665h-171l-277 316h239z"></glyph>
      <glyph glyph-name="Aacute" unicode="Á" d="M1045 408h-655l-147 -408h-213l597 1564h181l598 -1564h-211zM452 578h532l-266 731zM820 1981h240l-288 -316h-160z"></glyph>
      <glyph glyph-name="Acircumflex" unicode="Â" d="M1045 408h-655l-147 -408h-213l597 1564h181l598 -1564h-211zM452 578h532l-266 731zM1047 1689v-11h-164l-161 183l-160 -183h-165v13l265 292h120z"></glyph>
      <glyph glyph-name="Atilde" unicode="Ã" d="M1045 408h-655l-147 -408h-213l597 1564h181l598 -1564h-211zM452 578h532l-266 731zM1103 1949q0 -116 -66 -188t-165 -72q-44 0 -76 10.5t-84 44t-75.5 40.5t-53.5 7q-44 0 -75 -34t-31 -87l-133 8q0 115 65 190t165 75q37 0 67 -10.5t82 -42t79 -41t61 -9.5 q46 0 76.5 36.5t30.5 85.5z"></glyph>
      <glyph glyph-name="Adieresis" unicode="Ä" d="M1045 408h-655l-147 -408h-213l597 1564h181l598 -1564h-211zM452 578h532l-266 731zM377 1806q0 48 29.5 81t87.5 33t88 -33t30 -81q0 -49 -30 -81t-88 -32t-87.5 32t-29.5 81zM839 1804q0 48 29.5 81.5t87.5 33.5t88 -33.5t30 -81.5q0 -49 -30 -81t-88 -32t-87.5 32 t-29.5 81z"></glyph>
      <glyph glyph-name="Aring" unicode="Å" d="M1045 408h-655l-147 -408h-213l597 1564h181l598 -1564h-211zM452 578h532l-266 731zM953 1857q0 -93 -66.5 -156t-164.5 -63q-99 0 -165 63.5t-66 156.5q0 92 66 157.5t165 65.5t165 -65.5t66 -158.5zM597 1857q0 -50 36 -86.5t89 -36.5q51 0 87.5 35.5t36.5 88.5 q0 52 -35.5 89t-88.5 37q-54 0 -89.5 -37.5t-35.5 -89.5z"></glyph>
      <glyph glyph-name="AE" unicode="Æ" d="M2018 0h-948l-16 379h-606l-220 -379h-243l945 1564h1022v-163h-742l21 -506h634v-162h-627l23 -571h757v-162zM556 566h490l-33 788z"></glyph>
      <glyph glyph-name="Ccedilla" unicode="Ç" d="M1332 496q-29 -248 -183 -382.5t-410 -134.5q-277 0 -444 198.5t-167 531.5v150q0 218 78 383.5t220.5 254.5t330.5 89q250 0 400 -139.5t175 -385.5h-207q-27 187 -117 271t-251 84q-197 0 -309.5 -146t-112.5 -416v-151q0 -255 106.5 -405.5t297.5 -150.5q172 0 264 78 t122 271h207zM807 -10l-13 -56q164 -29 164 -185q0 -105 -86 -165.5t-239 -60.5l-8 115q85 0 132 28t47 78q0 48 -34.5 70.5t-140.5 31.5l35 144h143z"></glyph>
      <glyph glyph-name="Egrave" unicode="È" d="M1066 723h-678v-554h787v-169h-993v1564h982v-170h-776v-502h678v-169zM779 1678h-171l-277 316h239z"></glyph>
      <glyph glyph-name="Eacute" unicode="É" d="M1066 723h-678v-554h787v-169h-993v1564h982v-170h-776v-502h678v-169zM763 1994h240l-288 -316h-160z"></glyph>
      <glyph glyph-name="Ecircumflex" unicode="Ê" d="M1066 723h-678v-554h787v-169h-993v1564h982v-170h-776v-502h678v-169zM990 1702v-11h-164l-161 182l-160 -182h-164v13l264 292h120z"></glyph>
      <glyph glyph-name="Edieresis" unicode="Ë" d="M1066 723h-678v-554h787v-169h-993v1564h982v-170h-776v-502h678v-169zM320 1819q0 48 29.5 81t87.5 33t88 -33t30 -81q0 -49 -30 -81t-88 -32t-87.5 32t-29.5 81zM782 1817q0 48 29.5 81t87.5 33t88 -33t30 -81q0 -49 -30 -81t-88 -32t-87.5 32t-29.5 81z"></glyph>
      <glyph glyph-name="Igrave" unicode="Ì" d="M403 0h-206v1564h206v-1564zM414 1678h-171l-277 316h239z"></glyph>
      <glyph glyph-name="Iacute" unicode="Í" d="M403 0h-206v1564h206v-1564zM396 1994h241l-288 -316h-160z"></glyph>
      <glyph glyph-name="Icircumflex" unicode="Î" d="M403 0h-206v1564h206v-1564zM625 1702v-11h-164l-161 182l-160 -182h-165v13l265 292h120z"></glyph>
      <glyph glyph-name="Idieresis" unicode="Ï" d="M403 0h-206v1564h206v-1564zM-45 1819q0 48 29.5 81t87.5 33t88 -33t30 -81q0 -49 -30 -81t-88 -32t-87.5 32t-29.5 81zM417 1817q0 48 29.5 81t87.5 33t88 -33t30 -81q0 -49 -30 -81t-88 -32t-87.5 32t-29.5 81z"></glyph>
      <glyph glyph-name="Eth" unicode="Ð" d="M214 0v715h-174v163h174v686h441q204 0 361 -90t242.5 -256.5t86.5 -382.5v-100q0 -222 -85.5 -388.5t-244 -255.5t-368.5 -91h-433zM723 715h-303v-546h216q238 0 371 147t134 414v100q0 267 -125 414.5t-355 149.5h-241v-516h303v-163z"></glyph>
      <glyph glyph-name="Ntilde" unicode="Ñ" d="M1384 0h-208l-787 1205v-1205h-207v1564h207l789 -1211v1211h206v-1564zM1161 1949q0 -116 -66 -188t-165 -72q-44 0 -76 10.5t-84 44t-75.5 40.5t-53.5 7q-44 0 -75 -34t-31 -87l-133 8q0 115 65 190t165 75q37 0 67 -10.5t82 -42t79 -41t61 -9.5q46 0 76.5 36.5 t30.5 85.5z"></glyph>
      <glyph glyph-name="Ograve" unicode="Ò" d="M1385 732q0 -230 -77.5 -401.5t-219.5 -261.5t-331 -90q-184 0 -327 90.5t-222 258.5t-81 390v112q0 226 78.5 399t221.5 265t328 92q188 0 331.5 -91t221 -263.5t77.5 -401.5v-98zM1179 833q0 278 -111.5 426.5t-312.5 148.5q-195 0 -307.5 -148.5t-115.5 -413.5v-114 q0 -270 113.5 -424t311.5 -154q200 0 309.5 145.5t112.5 417.5v116zM872 1667h-171l-277 316h240z"></glyph>
      <glyph glyph-name="Oacute" unicode="Ó" d="M1385 732q0 -230 -77.5 -401.5t-219.5 -261.5t-331 -90q-184 0 -327 90.5t-222 258.5t-81 390v112q0 226 78.5 399t221.5 265t328 92q188 0 331.5 -91t221 -263.5t77.5 -401.5v-98zM1179 833q0 278 -111.5 426.5t-312.5 148.5q-195 0 -307.5 -148.5t-115.5 -413.5v-114 q0 -270 113.5 -424t311.5 -154q200 0 309.5 145.5t112.5 417.5v116zM856 1983h241l-288 -316h-160z"></glyph>
      <glyph glyph-name="Ocircumflex" unicode="Ô" d="M1385 732q0 -230 -77.5 -401.5t-219.5 -261.5t-331 -90q-184 0 -327 90.5t-222 258.5t-81 390v112q0 226 78.5 399t221.5 265t328 92q188 0 331.5 -91t221 -263.5t77.5 -401.5v-98zM1179 833q0 278 -111.5 426.5t-312.5 148.5q-195 0 -307.5 -148.5t-115.5 -413.5v-114 q0 -270 113.5 -424t311.5 -154q200 0 309.5 145.5t112.5 417.5v116zM1084 1691v-11h-164l-162 183l-160 -183h-164v13l264 292h121z"></glyph>
      <glyph glyph-name="Otilde" unicode="Õ" d="M1385 732q0 -230 -77.5 -401.5t-219.5 -261.5t-331 -90q-184 0 -327 90.5t-222 258.5t-81 390v112q0 226 78.5 399t221.5 265t328 92q188 0 331.5 -91t221 -263.5t77.5 -401.5v-98zM1179 833q0 278 -111.5 426.5t-312.5 148.5q-195 0 -307.5 -148.5t-115.5 -413.5v-114 q0 -270 113.5 -424t311.5 -154q200 0 309.5 145.5t112.5 417.5v116zM1140 1951q0 -116 -66 -188t-165 -72q-44 0 -76.5 10.5t-84.5 44t-75 40.5t-53 7q-44 0 -75.5 -34t-31.5 -86l-133 7q0 115 65 190t165 75q38 0 68 -10.5t81.5 -41.5t79 -41t60.5 -10q46 0 77 36.5 t31 85.5z"></glyph>
      <glyph glyph-name="Odieresis" unicode="Ö" d="M1385 732q0 -230 -77.5 -401.5t-219.5 -261.5t-331 -90q-184 0 -327 90.5t-222 258.5t-81 390v112q0 226 78.5 399t221.5 265t328 92q188 0 331.5 -91t221 -263.5t77.5 -401.5v-98zM1179 833q0 278 -111.5 426.5t-312.5 148.5q-195 0 -307.5 -148.5t-115.5 -413.5v-114 q0 -270 113.5 -424t311.5 -154q200 0 309.5 145.5t112.5 417.5v116zM414 1808q0 48 29.5 81t87.5 33t88 -33t30 -81t-30 -80.5t-88 -32.5t-87.5 32.5t-29.5 80.5zM875 1806q0 48 30 81.5t88 33.5t88 -33.5t30 -81.5q0 -49 -30 -81t-88 -32t-88 32t-30 81z"></glyph>
      <glyph glyph-name="multiply" unicode="×" d="M96 353l354 361l-352 360l128 132l353 -360l353 360l128 -132l-352 -360l354 -361l-127 -132l-356 362l-356 -362z"></glyph>
      <glyph glyph-name="Oslash" unicode="Ø" d="M1385 732q0 -230 -77.5 -401.5t-219.5 -261.5t-331 -90q-183 0 -324 88l-104 -167h-153l155 248q-204 206 -204 593v89q0 226 78.5 399t221.5 265t328 92q230 0 389 -135l111 178h151l-171 -274q148 -201 150 -517v-106zM332 732q0 -263 105 -414l606 971 q-110 119 -288 119q-195 0 -307.5 -148.5t-115.5 -413.5v-114zM1179 833q0 195 -60 336l-589 -947q97 -68 227 -68q200 0 309.5 145.5t112.5 417.5v116z"></glyph>
      <glyph glyph-name="Ugrave" unicode="Ù" d="M1283 1564v-1063q-1 -222 -139.5 -362.5t-374.5 -157.5l-55 -2q-256 0 -408.5 138.5t-155.5 380.5v1066h204v-1059q0 -170 93.5 -264t266.5 -94q175 0 268 93.5t93 263.5v1060h208zM830 1665h-170l-278 316h240z"></glyph>
      <glyph glyph-name="Uacute" unicode="Ú" d="M1283 1564v-1063q-1 -222 -139.5 -362.5t-374.5 -157.5l-55 -2q-256 0 -408.5 138.5t-155.5 380.5v1066h204v-1059q0 -170 93.5 -264t266.5 -94q175 0 268 93.5t93 263.5v1060h208zM814 1981h241l-288 -316h-160z"></glyph>
      <glyph glyph-name="Ucircumflex" unicode="Û" d="M1283 1564v-1063q-1 -222 -139.5 -362.5t-374.5 -157.5l-55 -2q-256 0 -408.5 138.5t-155.5 380.5v1066h204v-1059q0 -170 93.5 -264t266.5 -94q175 0 268 93.5t93 263.5v1060h208zM1042 1689v-11h-164l-161 183l-161 -183h-164v13l264 292h121z"></glyph>
      <glyph glyph-name="Udieresis" unicode="Ü" d="M1283 1564v-1063q-1 -222 -139.5 -362.5t-374.5 -157.5l-55 -2q-256 0 -408.5 138.5t-155.5 380.5v1066h204v-1059q0 -170 93.5 -264t266.5 -94q175 0 268 93.5t93 263.5v1060h208zM372 1806q0 48 29.5 81t87.5 33t88 -33t30 -81q0 -49 -30 -81t-88 -32t-87.5 32 t-29.5 81zM834 1804q0 48 29.5 81.5t87.5 33.5t88 -33.5t30 -81.5q0 -49 -30 -81t-88 -32t-87.5 32t-29.5 81z"></glyph>
      <glyph glyph-name="Yacute" unicode="Ý" d="M658 779l409 785h234l-539 -981v-583h-207v583l-539 981h236zM761 1981h240l-288 -316h-160z"></glyph>
      <glyph glyph-name="Thorn" unicode="Þ" d="M378 1564v-315h300q158 0 276 -56t182 -160.5t64 -239.5q0 -209 -142 -333t-386 -124h-294v-336h-200v1564h200zM378 1086v-586h298q152 0 238 81t86 210q0 132 -86 213t-232 82h-304z"></glyph>
      <glyph glyph-name="germandbls" unicode="ß" d="M348 0h-199v1193q0 224 111.5 350t310.5 126q194 0 299.5 -96t105.5 -267q0 -134 -68.5 -243t-68.5 -183q0 -55 40.5 -106t141 -128.5t147 -150.5t46.5 -154q0 -171 -109 -266.5t-305 -95.5q-87 0 -184 23.5t-138 53.5l46 166q53 -34 125.5 -57.5t129.5 -23.5 q115 0 175.5 50.5t60.5 138.5q0 56 -39.5 107.5t-141 130.5t-148.5 153t-47 161q0 96 74.5 207t74.5 201q0 101 -55.5 158.5t-150.5 57.5q-234 0 -234 -315v-1191z"></glyph>
      <glyph glyph-name="agrave" unicode="à" d="M868 0q-17 34 -28 122q-139 -143 -331 -143q-172 0 -282 97t-110 246q0 182 138 282.5t388 100.5h194v91q0 104 -62.5 166t-183.5 62q-107 0 -178.5 -54t-71.5 -130h-200q0 87 61.5 168t167.5 128.5t233 47.5q201 0 314.5 -100.5t118.5 -276.5v-535q0 -160 40 -255v-17 h-208zM538 151q94 0 177.5 48.5t121.5 125.5v239h-156q-365 0 -365 -214q0 -93 62 -146t160 -53zM738 1332h-171l-277 316h240z"></glyph>
      <glyph glyph-name="aacute" unicode="á" d="M868 0q-17 34 -28 122q-139 -143 -331 -143q-172 0 -282 97t-110 246q0 182 138 282.5t388 100.5h194v91q0 104 -62.5 166t-183.5 62q-107 0 -178.5 -54t-71.5 -130h-200q0 87 61.5 168t167.5 128.5t233 47.5q201 0 314.5 -100.5t118.5 -276.5v-535q0 -160 40 -255v-17 h-208zM538 151q94 0 177.5 48.5t121.5 125.5v239h-156q-365 0 -365 -214q0 -93 62 -146t160 -53zM722 1648h241l-288 -316h-160z"></glyph>
      <glyph glyph-name="acircumflex" unicode="â" d="M868 0q-17 34 -28 122q-139 -143 -331 -143q-172 0 -282 97t-110 246q0 182 138 282.5t388 100.5h194v91q0 104 -62.5 166t-183.5 62q-107 0 -178.5 -54t-71.5 -130h-200q0 87 61.5 168t167.5 128.5t233 47.5q201 0 314.5 -100.5t118.5 -276.5v-535q0 -160 40 -255v-17 h-208zM538 151q94 0 177.5 48.5t121.5 125.5v239h-156q-365 0 -365 -214q0 -93 62 -146t160 -53zM950 1356v-11h-165l-161 183l-160 -183h-164v13l264 292h120z"></glyph>
      <glyph glyph-name="atilde" unicode="ã" d="M868 0q-17 34 -28 122q-139 -143 -331 -143q-172 0 -282 97t-110 246q0 182 138 282.5t388 100.5h194v91q0 104 -62.5 166t-183.5 62q-107 0 -178.5 -54t-71.5 -130h-200q0 87 61.5 168t167.5 128.5t233 47.5q201 0 314.5 -100.5t118.5 -276.5v-535q0 -160 40 -255v-17 h-208zM538 151q94 0 177.5 48.5t121.5 125.5v239h-156q-365 0 -365 -214q0 -93 62 -146t160 -53zM1005 1616q0 -116 -66 -188t-164 -72q-45 0 -77 10.5t-84 44t-75 40.5t-53 7q-44 0 -75.5 -34t-31.5 -87l-133 8q0 115 65 190t165 75q37 0 67.5 -10.5t82 -42t79 -41 t60.5 -9.5q46 0 76.5 36.5t30.5 85.5z"></glyph>
      <glyph glyph-name="adieresis" unicode="ä" d="M868 0q-17 34 -28 122q-139 -143 -331 -143q-172 0 -282 97t-110 246q0 182 138 282.5t388 100.5h194v91q0 104 -62.5 166t-183.5 62q-107 0 -178.5 -54t-71.5 -130h-200q0 87 61.5 168t167.5 128.5t233 47.5q201 0 314.5 -100.5t118.5 -276.5v-535q0 -160 40 -255v-17 h-208zM538 151q94 0 177.5 48.5t121.5 125.5v239h-156q-365 0 -365 -214q0 -93 62 -146t160 -53zM279 1473q0 48 29.5 81t87.5 33t88.5 -33t30.5 -81q0 -49 -30.5 -81t-88.5 -32t-87.5 32t-29.5 81zM741 1471q0 48 29.5 81.5t87.5 33.5t88 -33.5t30 -81.5q0 -49 -30 -81 t-88 -32t-87.5 32t-29.5 81z"></glyph>
      </font>
</defs>
</svg>
